<?xml version="1.0" standalone="no"?>
<!DOCTYPE svg PUBLIC "-//W3C//DTD SVG 1.1//EN" "http://www.w3.org/Graphics/SVG/1.1/DTD/svg11.dtd" >
<svg xmlns="http://www.w3.org/2000/svg">
<metadata>Generated by IcoMoon</metadata>
<defs>
<font id="turflawn" horiz-adv-x="1024">
<font-face units-per-em="1024" ascent="960" descent="-64" />
<missing-glyph horiz-adv-x="1024" />
<glyph unicode="&#x20;" horiz-adv-x="512" d="" />
<glyph unicode="&#xe900;" glyph-name="heart" d="M956.542 708.426v0c-34.614 84.572-101.195 146.462-187.51 174.259-46.534 14.928-97.57 18.418-147.594 10.084-39.53-6.594-76.863-20.298-109.53-40.075-76.872 46.467-170.97 57.842-257.302 29.982-86.277-27.797-152.79-89.687-187.298-174.298-31.394-76.94-33.896-169.439-6.874-253.797 19.392-60.358 54.617-121.676 104.723-182.29 39.077-47.267 87.371-94.374 143.536-140.002 95.069-77.219 181.89-124.742 182.757-125.209 4.087-2.222 8.522-3.769 13.092-4.581l7.592-4.193 7.563 4.223c4.608 0.824 9.043 2.396 13.106 4.637 0.877 0.478 88.504 48.867 183.558 126.192 56.338 45.83 104.656 92.962 143.627 140.123 49.985 60.493 84.879 121.478 103.697 181.254 26.954 84.291 24.347 176.752-7.139 253.706zM486.077 766.201c3.928-2.969 8.242-5.167 12.759-6.618l13.559-10.137 13.439 10.31c4.411 1.48 8.619 3.678 12.441 6.605l0.174 0.135c55.312 42.765 135.476 56.136 204.188 34.093 136.86-44.085 178.096-197.165 138.884-319.684l-0.068-0.198c-35.587-113.168-138.99-214.961-219.478-280.419-61.612-50.13-120.172-87.424-149.98-105.418-29.635 17.791-87.689 54.617-148.953 104.391-80.243 65.193-183.635 166.986-220.49 281.672-38.716 120.866-3.331 273.989 138.513 319.684 22.64 7.312 46.013 10.894 69.256 10.894 48.385-0.028 96.211-15.555 135.756-45.31zM678.731 647.070c31.645-10.228 53.822-38.263 56.512-71.387 1.798-22.231 20.669-39.651 42.977-39.651h1.783l1.692 0.135c11.482 0.93 21.908 6.271 29.369 15.049s11.067 19.936 10.137 31.418c-5.529 67.989-51.036 125.489-115.938 146.476l-0.135 0.039c-22.573 7.221-46.867-5.249-54.193-27.904-7.23-22.563 5.22-46.867 27.797-54.179z" />
<glyph unicode="&#xe901;" glyph-name="home" d="M962.359 542.122c-0.62 44.496-21.27 85.577-56.68 112.786l-284.597 226.951c-31.029 24.6-69.997 38.144-109.711 38.144s-78.677-13.541-109.711-38.144l-283.319-227.356c-35.607-27.191-56.268-68.337-56.703-112.959v-377.534c0-103.67 85.010-188.006 189.516-188.006h83.279c24.515 0 47.648 9.432 65.15 26.54 7.091 6.937 12.924 14.81 17.389 23.341l9.778-1.463v33.315c0 0.042 0.012 0.089 0.012 0.143 0.931 3.384 1.421 6.907 1.421 10.506v132.724c0 12.13 10.118 22.075 22.564 22.206h124.756c12.589 0 22.821-9.963 22.821-22.206v-133.129c-0.012-24.242 9.39-47.117 26.456-64.422 16.965-17.204 39.66-26.987 63.902-27.549l84.164-0.012c104.494 0 189.516 84.341 189.516 188.006v378.108zM772.854 54.423h-82.67c-7.318 0.325-13.443 6.461-13.443 13.551v133.136c0 55.49-45.415 100.625-101.241 100.625h-125.169c-55.456-0.37-100.567-45.504-100.567-100.625v-124.683c-0.555-2.626-0.836-5.313-0.836-8.046 0-7.7-6.506-13.963-14.506-13.963h-83.279c-61.258 0-111.096 49.17-111.096 109.592v376.949c0.25 20.284 9.766 39.022 26.116 51.414l0.424 0.325 283.862 227.786c35.9 28.396 86.007 28.373 121.895-0.054l285.367-227.571c16.327-12.47 25.871-31.256 26.226-51.575v-377.277c0-60.434-49.827-109.592-111.085-109.592z" />
<glyph unicode="&#xe902;" glyph-name="location" d="M512 700.963c-100.206 0-181.729-81.523-181.729-181.729s81.523-181.729 181.729-181.729c100.206 0 181.729 81.523 181.729 181.729s-81.523 181.729-181.729 181.729zM512 437.586c-45.012 0-81.627 36.613-81.627 81.627s36.613 81.627 81.627 81.627 81.627-36.613 81.627-81.627-36.613-81.627-81.627-81.627zM914.484 606.661v0c-22.125 97.791-75.172 179.148-153.388 235.289-70.004 50.239-158.349 77.964-248.774 78.051-0.146 0-0.297 0-0.448 0-90.401 0-178.741-27.614-248.764-77.768-78.262-56.041-131.364-137.333-153.62-235.145-24.338-107.514-10.021-217.016 42.562-325.474 38.397-79.209 96.551-156.659 172.917-230.248 50.601-48.601 117.007-75.368 186.986-75.368 70.015 0 136.339 26.803 186.659 75.368 77.027 73.967 135.553 151.749 173.941 231.171 52.104 107.813 66.224 216.855 41.936 324.123zM629.263 123.55l-0.089-0.089c-65.664-63.381-168.833-63.337-234.811 0.030-109.239 105.287-230.409 270.808-187.253 461.449 39.421 173.265 188.559 234.85 304.47 234.968h0.502c116.049-0.066 265.5-61.742 304.79-235.339 43.156-190.676-78.205-355.937-187.602-461.006z" />
<glyph unicode="&#xe903;" glyph-name="prev_d" d="M575.333 60.653l-412.018 387.347 412.033 387.347c18.649 17.537 18.649 45.967 0 63.503s-48.899 17.537-67.548 0l-445.81-419.103c-18.649-17.537-18.649-45.967 0-63.503l445.81-419.088c18.649-17.537 48.899-17.537 67.548 0 18.64 17.537 18.64 45.967-0.015 63.503zM961.995 60.653l-412.018 387.347 412.033 387.347c18.649 17.537 18.649 45.967 0 63.503s-48.899 17.537-67.548 0l-445.81-419.103c-18.649-17.537-18.649-45.967 0-63.503l445.81-419.088c18.649-17.537 48.899-17.537 67.548 0 18.64 17.537 18.64 45.967-0.015 63.503z" />
<glyph unicode="&#xe904;" glyph-name="search" d="M979.951 48.906c-2.667 6.388-6.57 12.19-11.475 17.064l-178.244 177.724c57.515 73.27 88.721 163.752 88.599 256.896 0 82.953-24.601 164.042-70.69 233.010s-111.592 122.728-188.231 154.48c-76.639 31.739-160.963 40.052-242.329 23.864s-156.080-56.137-214.731-114.787c-58.656-58.656-98.6-133.391-114.787-214.744-16.18-81.353-7.876-165.69 23.864-242.329s85.499-142.143 154.48-188.231c68.968-46.089 150.057-70.69 233.010-70.69 93.144-0.121 183.626 31.097 256.896 88.599l177.724-178.244c4.87-4.909 10.663-8.812 17.064-11.475 6.388-2.667 13.245-4.038 20.165-4.038s13.769 1.37 20.165 4.038c6.388 2.654 12.182 6.557 17.064 11.475 4.909 4.87 8.812 10.676 11.475 17.064 2.654 6.388 4.038 13.235 4.038 20.152-0.013 6.943-1.384 13.79-4.046 20.178zM750.033 380.199c-23.812-57.481-64.133-106.609-115.854-141.171s-112.546-53.010-174.753-53.010c-83.426 0-163.435 33.144-222.429 92.138s-92.128 139.003-92.128 222.429c0 62.216 18.443 123.032 53.010 174.753s83.691 92.043 141.171 115.854c57.481 23.812 120.729 30.044 181.748 17.901s117.069-42.099 161.058-86.093c43.989-43.989 73.951-100.039 86.093-161.058 12.121-61.019 5.889-124.254-17.91-181.748z" />
<glyph unicode="&#xe905;" glyph-name="sms" d="M939.037 815.664c-46.476 43.161-111.636 65.040-193.673 65.040h-466.723c-82.036 0-147.203-21.88-193.673-65.040-50.217-46.63-75.671-115.364-75.671-204.317v-326.696c0-88.947 25.454-157.687 75.671-204.317 46.476-43.161 111.636-65.040 193.673-65.040h466.723c82.036 0 147.203 21.88 193.673 65.040 50.217 46.63 75.671 115.364 75.671 204.317v326.696c0 88.94-25.454 157.687-75.671 204.317zM942.731 611.349v-326.696c0-74.807-21.066-128.756-62.615-160.338-32.319-24.57-77.658-37.028-134.751-37.028h-466.723c-57.089 0-102.428 12.464-134.751 37.028-41.553 31.587-62.615 85.531-62.615 160.338v326.696c0 74.807 21.066 128.756 62.615 160.338 32.319 24.57 77.658 37.028 134.751 37.028h466.723c57.089 0 102.428-12.464 134.751-37.028 41.54-31.587 62.615-85.531 62.615-160.338zM722.9 616.132l-146.039-116.643c-35.28-28.1-94.9-28.1-130.1-0.073l-145.615 116.679c-7.382 5.92-17.016 8.723-26.437 7.694-9.408-1.030-18.202-5.86-24.132-13.229-6.033-7.515-8.784-16.936-7.714-26.524 1.056-9.528 5.759-18.086 13.269-24.119l145.708-116.751c29.666-23.621 68.714-36.629 109.936-36.629s80.262 13.007 109.969 36.663l146.087 116.679c7.515 6.013 12.238 14.578 13.302 24.145s-1.668 18.959-7.655 26.45c-12.392 15.494-35.068 18.037-50.569 5.655z" />
<glyph unicode="&#xe906;" glyph-name="star" d="M950.784 577.636h-289.833c-13.509 0-25.501 8.705-29.673 21.545l-89.589 275.371c-9.344 28.733-50.001 28.733-59.346 0l-89.589-275.371c-4.184-12.855-16.164-21.545-29.673-21.545h-289.852c-30.238 0-42.807-38.709-18.326-56.47l234.413-170.092c10.95-7.95 15.536-22.043 11.347-34.913l-89.552-275.261c-9.356-28.745 23.541-52.661 47.998-34.913l234.567 170.203c10.929 7.926 25.722 7.926 36.651 0l234.567-170.195c24.457-17.76 57.355 6.168 47.998 34.913l-89.552 275.261c-4.184 12.865 0.399 26.963 11.347 34.913l234.401 170.092c24.493 17.76 11.924 56.458-18.314 56.458z" />
<glyph unicode="&#xe907;" glyph-name="success" d="M978.254 414.369c-4.967 7.451-12.543 12.525-21.27 14.26-8.776 1.771-17.729 0.012-25.186-4.967-7.462-4.967-12.536-12.543-14.283-21.324-29.666-148.468-142.105-314.714-326.46-351.409-84.091-16.755-169.733-6.726-247.669 29.019-77.948 35.745-141.469 94.132-183.702 168.829-42.233 74.709-59.529 159.282-50.005 244.603 9.524 85.309 45.019 163.991 102.682 227.527 114.512 126.259 311.927 167.413 480.074 100.092 8.312-3.334 17.426-3.227 25.65 0.303 8.235 3.518 14.598 10.041 17.92 18.342 3.334 8.312 3.227 17.426-0.303 25.662-3.529 8.229-10.041 14.598-18.353 17.908-47.533 19.043-97.834 30.831-149.479 35.043-50.331 4.101-100.802 0.939-150.031-9.405-49.327-10.362-96.093-27.67-138.998-51.442-44.199-24.485-83.271-55.254-116.122-91.476-67.182-74.038-108.565-165.717-119.652-265.126s9.057-197.967 58.275-285.024c49.22-87.056 123.258-155.105 214.105-196.767 62.262-28.555 128.19-43.023 195.989-43.023 30.908 0 62.098 3.098 92.718 9.198 95.143 18.936 182.020 69.915 251.245 147.429 63.61 71.222 109.016 162.339 127.833 256.564 1.759 8.776 0 17.718-4.979 25.175zM243.268 421.31c-6.393 6.274-14.854 9.706-23.807 9.596-8.948-0.089-17.338-3.66-23.588-10.029-6.274-6.393-9.685-14.842-9.596-23.796 0.089-8.96 3.66-17.338 10.041-23.612l171.896-168.592c5.193-5.098 11.758-8.301 18.851-9.286l5.407-5.3 5.205 5.526c6.975 1.272 13.494 4.771 18.43 9.999l412.558 438.347c6.143 6.52 9.37 15.038 9.102 23.987s-4.005 17.254-10.516 23.374c-6.52 6.143-15.050 9.382-23.998 9.114s-17.254-4.005-23.394-10.528l-389.12-413.443-147.464 144.636z" />
<glyph unicode="&#xe908;" glyph-name="trash" d="M919.759 745.254h-206.21v52.25c0 32.396-12.092 62.938-34.056 85.999-22.409 23.533-52.342 36.492-84.279 36.492h-166.433c-31.937 0-61.865-12.959-84.279-36.492-21.964-23.060-34.056-53.603-34.056-85.999v-52.25h-206.21c-19.372 0-35.116-15.758-35.116-35.116s15.758-35.116 35.116-35.116h81.379v-576.527c0-32.396 12.092-62.938 34.070-85.999 22.409-23.533 52.342-36.492 84.279-36.492h416.085c31.937 0 61.865 12.959 84.279 36.492 21.964 23.060 34.056 53.603 34.056 85.999v576.527h81.379c19.372 0 35.116 15.758 35.116 35.116s-15.744 35.116-35.116 35.116zM380.683 797.517c0 14.276 5.211 27.62 14.684 37.566v0c9.014 9.473 20.891 14.698 33.405 14.698h166.433c12.514 0 24.391-5.221 33.405-14.698 9.473-9.945 14.684-23.276 14.684-37.566v-52.25h-262.611v52.25zM768.139 98.481c0-14.276-5.211-27.62-14.684-37.566-9.028-9.473-20.891-14.698-33.419-14.698h-416.085c-12.514 0-24.391 5.221-33.419 14.698-9.473 9.945-14.684 23.276-14.684 37.566v576.527h512.272v-576.527zM395.496 208.999c19.372 0 35.116 15.758 35.116 35.116v233.014c0 19.372-15.758 35.116-35.116 35.116-19.372 0-35.13-15.758-35.13-35.116v-233.014c0.014-19.359 15.758-35.116 35.13-35.116zM628.504 208.999c19.372 0 35.13 15.758 35.13 35.116v233.014c0 19.372-15.758 35.116-35.13 35.116s-35.116-15.758-35.116-35.116v-233.014c-0.014-19.359 15.744-35.116 35.116-35.116z" />
<glyph unicode="&#xe909;" glyph-name="undo" d="M675.653 645.428h-482.728l142.65 142.65c15.459 15.459 15.459 40.616 0 56.075-7.496 7.496-17.458 11.623-28.049 11.623s-20.566-4.128-28.049-11.612l-210.348-210.348c-2.748-2.748-4.997-5.812-6.766-9.058-0.031-0.055-0.067-0.109-0.085-0.164-0.249-0.456-0.48-0.912-0.705-1.38-0.085-0.176-0.164-0.347-0.249-0.523-0.164-0.359-0.328-0.705-0.487-1.064-0.128-0.304-0.261-0.608-0.382-0.912-0.055-0.128-0.109-0.249-0.164-0.382l-14.554-14.554 14.554-14.554c0.043-0.109 0.097-0.219 0.14-0.328 0.14-0.335 0.28-0.675 0.425-1.009 0.14-0.328 0.28-0.639 0.433-0.967 0.097-0.207 0.207-0.425 0.304-0.632 0.207-0.425 0.425-0.845 0.651-1.271 0.055-0.097 0.097-0.183 0.152-0.28 1.769-3.228 4.007-6.268 6.736-9.004l210.348-210.348c7.496-7.496 17.458-11.623 28.049-11.623s20.566 4.128 28.049 11.623c15.459 15.459 15.459 40.616 0 56.087l-142.65 142.643h482.728c123.122 0 223.285-100.167 223.285-223.285s-100.167-223.285-223.285-223.285h-420.708c-21.867 0-39.661-17.794-39.661-39.661s17.794-39.661 39.661-39.661h420.708c166.856 0 302.607 135.743 302.607 302.607s-135.743 302.607-302.607 302.607z" />
<glyph unicode="&#xe90a;" glyph-name="user" d="M511.987 507.84c113.635 0 206.080 92.445 206.080 206.080s-92.445 206.080-206.080 206.080-206.080-92.445-206.080-206.080 92.445-206.080 206.080-206.080zM511.987 826.931c62.327 0 113.024-50.702 113.024-113.024s-50.702-113.024-113.024-113.024-113.024 50.702-113.024 113.024c0 62.327 50.702 113.024 113.024 113.024zM889.81 275.245c-23.031 23.921-55.417 44.914-96.249 62.422-75.983 32.557-175.97 50.493-281.577 50.493s-205.591-17.936-281.578-50.493c-40.845-17.508-73.218-38.502-96.249-62.422-26.816-27.842-40.988-60.058-40.988-93.165s14.172-65.323 40.988-93.165c23.031-23.921 55.417-44.914 96.258-62.422 75.97-32.557 175.97-50.493 281.577-50.493s205.604 17.936 281.577 50.493c40.845 17.495 73.231 38.502 96.259 62.422 26.808 27.842 40.988 60.058 40.988 93.165-0.026 33.107-14.193 65.323-41.015 93.165zM837.747 182.080c0-21.626-31.924-49.202-81.332-70.269-63.727-27.17-152.809-42.746-244.412-42.746s-180.698 15.585-244.412 42.746c-49.411 21.068-81.331 48.652-81.331 70.269s31.924 49.202 81.331 70.269c63.727 27.17 152.809 42.745 244.412 42.745s180.698-15.585 244.412-42.745c49.411-21.055 81.332-48.644 81.332-70.269z" />
<glyph unicode="&#xe90b;" glyph-name="arrow_r" d="M903.43 448.001c0 13.409-10.91 24.32-24.32 24.32h-842.257c-13.409 0-24.32-10.91-24.32-24.32s10.91-24.32 24.32-24.32h842.257c13.409 0 24.32 10.91 24.32 24.32zM1002.986 456.491c-1.205 3.228-3.095 6.201-5.627 8.743l-294.817 294.441c-9.485 9.44-24.894 9.419-34.39-0.089-9.44-9.485-9.419-24.894 0.056-34.367l277.565-277.207-277.55-277.23c-4.599-4.588-7.141-10.7-7.141-17.2s2.532-12.608 7.119-17.211c4.599-4.599 10.7-7.119 17.2-7.119s12.602 2.532 17.19 7.119l294.795 294.474c2.521 2.521 4.422 5.494 5.616 8.733l8.469 8.457-8.478 8.457z" />
<glyph unicode="&#xe90c;" glyph-name="briefcase" d="M931.72 678.955c-39.324 43.921-104.748 65.27-199.993 65.27h-11.386v2.605c0 41.394 0 84.206-23.346 117.989-34.191 49.472-101.89 55.186-149.829 55.186h-70.314c-47.945 0-115.638-5.723-149.829-55.186-23.346-33.783-23.346-76.595-23.346-117.989v-2.605h-11.397c-95.25 0-160.669-21.348-199.993-65.27-34.704-38.75-47.068-91.271-38.932-165.25l32.977-351.737c4.41-41.184 14.808-93.318 56.384-131.305 40.268-36.785 103.556-54.662 193.502-54.662h351.555c89.946 0 153.251 17.877 193.502 54.662 41.576 37.983 51.974 90.128 56.384 131.312l32.977 351.709c8.146 74.001-4.219 126.521-38.921 165.272zM837.37 78.728c-27.325-24.963-77.655-37.619-149.595-37.619h-351.555c-71.942 0-122.272 12.656-149.595 37.619-25.184 23.004-31.978 56.82-35.543 89.957l-23.964 255.643c82.026-47.917 172.386-80.028 265.213-94.129 1.374-17.534 5.21-35.229 15.989-50.765 24.72-35.643 71.021-39.771 103.695-39.771 32.696 0 79.018 4.139 103.738 39.964 11.063 16.028 14.797 33.794 16.061 51.875 93.914 15.382 184.208 48.282 265.423 96.552l-24.328-259.357c-3.565-33.137-10.355-66.964-35.543-89.968zM292.268 679.115h439.448c74.625 0 125.589-14.665 151.491-43.596 21.502-24.014 28.705-60.545 22.69-114.962l-0.030-0.265-1.049-11.215c-81.215-56.334-174.478-94.784-272.377-112.437v7.407c0 26.933 0 46.383-15.062 61.445s-34.511 15.062-61.445 15.062h-87.888c-26.933 0-46.383 0-61.445-15.062s-15.062-34.511-15.062-61.445v-7.804c-96.541 16.254-189.931 53.873-272.117 109.865l-1.302 13.919-0.050 0.524c-6.016 54.408 1.192 90.939 22.69 114.953 25.912 28.94 76.888 43.607 151.501 43.607zM380.592 827.94c12.589 18.141 44.071 26.961 96.259 26.961h70.314c52.186 0 83.671-8.821 96.259-26.961 11.811-17.027 11.811-46.725 11.811-81.115v-2.605h-286.451v2.605c0 34.39 0 64.089 11.811 81.115zM456.673 358.948v45.108c0 3.775 0 7.743 0.039 11.347 3.604 0.039 7.582 0.039 11.347 0.039h87.888c3.775 0 7.743 0 11.347-0.039 0.039-3.604 0.039-7.582 0.039-11.347v-44.827c0-17.341 0-35.279-5.26-42.79-5.188-7.407-23.44-11.668-50.076-11.668-26.569 0-44.799 4.228-50.015 11.596-5.271 7.429-5.32 24.902-5.32 41.912 0.011 0.21 0.011 0.436 0.011 0.668z" />
<glyph unicode="&#xe90d;" glyph-name="call" d="M972.969 225.542c-7.779 17.669-20.467 32.715-37.76 44.721l-143.081 101.564c-13.491 9.178-25.834 16.004-37.73 20.869-14.253 5.838-27.97 8.666-41.893 8.666-17.694 0-34.78-4.825-50.835-14.339-13.050-6.991-26.084-17.072-39.811-30.784l-25.101-24.765c-9.248 5.396-23.492 15.046-43.638 32.088-19.524 16.586-39.897 35.418-66.006 61.031-19.58 19.981-39.315 41.476-60.294 65.715-17.197 20.342-26.862 34.139-32.253 43.016l25.197 26.195c12.759 12.799 22.921 25.763 30.242 38.593 9.764 16.254 14.715 33.557 14.715 51.462 0 13.422-3.19 28.010-9.233 42.214-5.186 12.603-12.301 25.111-21.731 38.216l-99.719 140.543c-11.47 16.5-26.626 29.204-45.067 37.76-16.029 7.64-34.169 11.691-52.46 11.691-43.252 0-83.023-17.498-118.215-52.028-26.681-25.252-46.622-54.33-59.266-86.463-12.217-30.578-18.401-63.664-18.401-98.319 0-50.118 11.525-102.893 34.294-156.973 21.506-50.629 51.418-102.728 88.916-154.852l0.14-0.196c36.817-50.559 78.614-99.553 124.223-145.603l0.276-0.276c45.915-45.468 95.029-87.391 146.035-124.65 51.182-37.258 103.766-67.506 156.296-89.886 54.11-23.060 106.79-34.751 156.587-34.751 35.112 0 68.654 6.56 99.734 19.484 32.033 13.145 59.988 33.186 85.475 61.267 14.77 16.31 26.556 33.973 36.025 54.025 9.764 20.688 14.725 42.404 14.725 64.567 0 16.365-3.23 32.379-9.86 48.949l-0.512 1.264zM894.024 146.005c-5.948-12.593-13.326-23.657-22.534-33.823-17.042-18.791-35.277-31.992-55.745-40.383l-0.206-0.085c-21.009-8.752-43.929-13.186-68.127-13.186-38.618 0-80.43 9.469-124.248 28.136-46.803 19.941-93.921 47.078-140.016 80.636-47.59 34.766-93.49 73.955-136.437 116.47-42.615 43.041-81.624 88.75-115.928 135.869-33.893 47.134-60.765 93.839-79.818 138.697-18.431 43.778-27.775 85.781-27.775 124.845 0 24.169 4.228 46.983 12.563 67.812l0.085 0.221c8.225 20.899 21.495 40.090 39.465 57.049l0.612 0.597c19.565 19.274 39.41 28.637 60.655 28.637 6.114 0 12.007-1.274 17.057-3.701l0.542-0.265c5.146-2.372 9.153-5.697 12.232-10.166l100.371-141.456c5.712-7.934 9.805-15.016 12.537-21.686l0.265-0.612c1.981-4.631 2.688-8.29 2.688-10.026 0-2.802-0.998-5.798-3.049-9.168l-0.667-1.123c-3.687-6.519-9.705-14.033-17.388-21.731l-33.061-34.35c-12.187-12.368-18.637-28.276-18.637-46.050 0-6.725 0.817-13.12 2.578-20.091l0.557-2.192 0.792-2.121c0.903-2.397 1.72-4.328 2.387-5.893 0.221-0.512 0.431-1.013 0.622-1.5l0.512-1.54 1.51-3.44 0.817-1.5c9.404-17.237 24.043-37.539 44.791-62.039l0.291-0.346c22.283-25.753 43.292-48.633 64.221-69.973l0.542-0.542c27.719-27.208 49.521-47.354 70.735-65.369 23.672-20.026 44.872-35.057 63.027-44.651l1.831-0.983 1.981-0.792c0.622-0.265 1.304-0.582 2.094-0.943 1.485-0.678 3.079-1.414 4.855-2.162l1.68-0.678c7.809-2.924 16.074-4.353 25.267-4.353 17.905 0 34.059 6.685 46.732 19.319l32.835 32.409c10.026 10.026 16.947 14.645 20.994 16.751l1.164 0.612 1.123 0.692c4.383 2.663 7.072 3.024 9.138 3.024 3.009 0 6.49-0.833 10.662-2.538 6.42-2.623 13.702-6.71 22.228-12.493l142.634-101.258c5.868-4.062 8.070-7.433 9.168-9.735 2.523-6.475 3.646-11.911 3.646-17.528-0.015-9.845-2.317-19.72-6.836-29.299v0zM641.229 686.737c20.798 0 47.008-14.88 70.124-39.786l0.085-0.095c26.807-28.733 39.3-58.533 39.3-69.627 0-22.744 18.511-41.256 41.256-41.256s41.256 18.511 41.256 41.256c0 44.265-31.771 94.075-61.402 125.828-39.009 42.058-86.614 66.187-130.613 66.187-22.744 0-41.256-18.511-41.256-41.256s18.496-41.256 41.256-41.256zM641.229 837.486c143.512 0 260.273-116.761 260.273-260.273 0-22.744 18.511-41.256 41.256-41.256s41.256 18.511 41.256 41.256c0 91.649-35.639 177.746-100.329 242.438-64.702 64.702-150.804 100.329-242.438 100.329-22.744 0-41.256-18.511-41.256-41.256s18.486-41.241 41.241-41.241z" />
<glyph unicode="&#xe90e;" glyph-name="cart" d="M537.242 71.041c0-70.161-56.876-127.041-127.041-127.041s-127.041 56.876-127.041 127.041c0 70.161 56.876 127.041 127.041 127.041s127.041-56.876 127.041-127.041zM898.203 160.866c49.61-49.61 49.61-130.046 0-179.655s-130.046-49.61-179.655 0c-49.61 49.61-49.61 130.046 0 179.655s130.046 49.61 179.655 0zM997.012 750.46h-26.468c-4.081 1.625-8.408 2.444-12.843 2.444h-663.829l-35.047 171.211c-0.88 4.325-2.549 8.383-4.961 12.073l-2.738 13.369h-13.649c-4.081 1.625-8.37 2.444-12.782 2.444h-162.89c-19.197 0-34.826-15.629-34.826-34.826s15.629-34.826 34.826-34.826h134.467l34.741-169.746c0.155-1.014 0.366-2.016 0.611-2.99l68.065-332.513c5.352-26.37 20.063-50.15 41.401-66.952 20.529-16.166 46.326-25.063 72.622-25.063 0.623 0 1.259 0 1.784 0.012h395.226c0.636-0.012 1.271-0.012 1.907-0.012 26.321 0 52.044 8.859 72.634 25.063 21.335 16.802 36.049 40.582 41.413 66.998l65.192 334.224c0.867 4.387 0.88 8.798 0.073 13.133l5.069 25.955zM858.399 390.843c-2.090-10.179-7.841-19.405-16.204-25.98-8.578-6.758-19.38-10.326-30.574-10.13h-396.997c-11.083-0.171-21.886 3.397-30.452 10.13-8.383 6.598-14.15 15.886-16.24 26.138l-59.828 292.249h607.3l-57.005-292.408z" />
<glyph unicode="&#xe90f;" glyph-name="down" d="M81.144 693.296c16.765 17.826 43.932 17.826 60.683 0l370.171-393.758 370.171 393.758c16.75 17.826 43.932 17.826 60.683 0 16.765-17.826 16.765-46.731 0-64.553l-400.515-426.038c-16.765-17.826-43.932-17.826-60.683 0l-400.515 426.038c-16.765 17.826-16.765 46.731 0 64.553z" />
<glyph unicode="&#xe910;" glyph-name="edit" d="M988.033 838.95c-7.944 19.18-19.403 36.326-34.069 51.008-14.669 14.669-31.829 26.14-51.008 34.069-19.165 7.944-39.408 11.964-60.156 11.964s-40.991-4.020-60.156-11.964c-19.165-7.944-36.326-19.403-50.994-34.069l-623.258-623.258c-3.262-3.262-5.633-7.354-6.861-11.823l-69.249-253.891c-1.107-4.050-1.219-8.223-0.435-12.217l-7.844-28.762 28.718 7.832c3.95-0.784 8.126-0.673 12.217 0.435l253.961 69.263c4.455 1.219 8.546 3.586 11.809 6.851l623.258 623.258c14.669 14.669 26.14 31.829 34.069 50.994 7.944 19.165 11.964 39.408 11.964 60.171 0 20.748-4.020 40.991-11.964 60.142zM938.86 739.021v0c-5.254-12.678-12.834-24.026-22.538-33.734l-618.257-618.257-202.154-55.126 55.14 202.154 618.245 618.257c9.694 9.694 21.057 17.289 33.734 22.538s26.058 7.915 39.787 7.915 27.109-2.661 39.787-7.915c12.678-5.254 24.026-12.834 33.734-22.538s17.289-21.042 22.538-33.734c5.254-12.663 7.915-26.058 7.915-39.772-0.029-13.744-2.69-27.121-7.929-39.787z" />
<glyph unicode="&#xe911;" glyph-name="facebook" d="M999.853 445.048c0 269.459-218.394 487.853-487.853 487.853s-487.853-218.383-487.853-487.853c0-243.548 178.372-445.353 411.624-481.948v340.936h-123.866v141.012h123.866v107.484c0 122.254 72.791 189.802 184.28 189.802 53.363 0 109.201-9.528 109.201-9.528v-120.053h-61.551c-60.603 0-79.467-37.64-79.467-76.229v-91.472h135.308l-21.629-141.020h-113.68v-340.925c233.252 36.592 411.624 238.411 411.624 481.948z" />
<glyph unicode="&#xe912;" glyph-name="glob" d="M845.742 781.742c-89.145 89.145-207.669 138.243-333.742 138.243s-244.597-49.098-333.742-138.243c-89.16-89.145-138.258-207.669-138.258-333.742s49.098-244.597 138.243-333.757c89.16-89.13 207.684-138.228 333.757-138.228s244.597 49.098 333.742 138.243c89.16 89.145 138.258 207.669 138.258 333.742s-49.098 244.597-138.258 333.742zM407.427 45.894l-0.34 1.024c0.231 3.583-0.231 7.224-1.402 10.698-18.872 56.523-33.493 114.341-43.891 172.868 49.723-5.817 99.854-8.761 150.206-8.761s100.469 2.928 150.191 8.761c-10.398-58.512-25.019-116.305-43.876-172.813-1.279-3.814-1.703-7.765-1.334-11.652-33.547-8.761-68.718-13.449-104.981-13.449-36.111 0-71.144 4.631-104.573 13.326zM927.447 448c0-36.096-4.631-71.129-13.326-104.558l-1.033-0.34c-3.583 0.231-7.224-0.246-10.708-1.402-56.523-18.872-114.326-33.481-172.838-43.876 5.817 49.723 8.761 99.844 8.761 150.191s-2.943 100.469-8.761 150.191c58.497-10.398 116.29-25.004 172.784-43.876 2.918-0.979 5.954-1.486 9.035-1.486 0.901 0 1.772 0.054 2.657 0.138 8.75-33.547 13.435-68.733 13.435-104.981zM96.553 448c0 36.258 4.69 71.444 13.449 104.991 3.897-0.369 7.876 0.039 11.624 1.294 56.509 18.872 114.312 33.481 172.828 43.876-5.817-49.723-8.75-99.844-8.75-150.18 0-50.352 2.928-100.469 8.761-150.191-58.487 10.398-116.251 25.004-172.73 43.865-3.514 1.186-7.168 1.663-10.792 1.445l-1.033 0.34c-8.705 33.424-13.356 68.462-13.356 104.558zM352.843 607.133c105.552 13.599 212.768 13.599 318.305 0.015 13.599-105.537 13.599-212.738 0-318.275-105.552-13.599-212.768-13.599-318.29-0.015-13.599 105.552-13.612 212.738-0.015 318.275zM721.224 657.224c-9.444 57.463-22.809 114.287-40.023 170.171 93.274-41.765 168.439-116.93 210.204-210.204-55.899 17.224-112.717 30.58-170.181 40.033zM618.3 838.389c18.872-56.523 33.493-114.356 43.891-172.868-49.723 5.817-99.844 8.761-150.191 8.761s-100.483-2.943-150.221-8.761c10.398 58.497 25.004 116.29 43.876 172.784 1.186 3.504 1.649 7.155 1.432 10.767l0.34 1.033c33.424 8.696 68.462 13.341 104.573 13.341 36.249 0 71.429-4.69 104.967-13.449-0.369-3.883 0.054-7.82 1.334-11.609zM327.278 820.033c2.303-0.615 4.714-0.969 7.224-0.969h5.738c-15.998-53.212-28.508-107.24-37.489-161.859-57.463-9.444-114.272-22.809-170.156-40.023 39.423 88.043 108.603 159.935 194.683 202.847zM140.931 270.512v5.738c53.197-15.998 107.229-28.493 161.83-37.474 8.981-54.614 21.49-108.645 37.489-161.844h-5.738c-2.495 0-4.906-0.354-7.224-0.969-80.957 40.363-146.963 106.369-187.326 187.326 0.6 2.303 0.969 4.729 0.969 7.224zM681.201 68.61c17.224 55.884 30.58 112.707 40.023 170.171 54.614 8.981 108.645 21.476 161.844 37.489v-5.738c0-2.507 0.354-4.921 0.969-7.224-42.897-86.094-114.804-155.275-202.832-194.697z" />
<glyph unicode="&#xe913;" glyph-name="facebook_c" d="M991.449 463.269v0c0.044 7.705-0.419 15.382-0.996 23.063-0.714 9.487-1.702 18.939-3.016 28.345-2.46 17.58-5.826 34.989-10.225 52.183-9.213 36.131-22.455 70.727-39.76 103.741-15.37 29.309-33.571 56.727-54.606 82.287-22.781 27.676-48.316 52.51-76.617 74.501-27.067 21.023-56.058 38.954-86.988 53.748-19.721 9.431-39.974 17.487-60.784 24.152-20.108 6.439-40.567 11.484-61.34 15.209-13.362 2.403-26.829 4.205-40.349 5.451-9.375 0.863-18.769 1.439-28.176 1.768-0.988-0.032-1.972-0.089-2.969-0.089-5.939 0.012-11.878 0.044-17.818 0.069-3.955 0.012-7.923 0.024-11.878 0.024-2.617-0.149-5.238-0.339-7.854-0.444-13.941-0.556-27.801-1.972-41.619-3.83-16.253-2.197-32.325-5.27-48.248-9.144-36.224-8.83-70.916-21.749-104.104-38.728-15.257-7.81-30.071-16.378-44.385-25.773-36.962-24.255-69.989-53.034-99.036-86.355-27.725-31.793-50.901-66.598-69.432-104.499-18.757-38.353-32.176-78.488-40.123-120.458-3.843-20.299-6.427-40.747-7.617-61.384-0.25-4.25-0.25-8.5-0.657-12.741-0.282-0.012-0.556-0.024-0.839-0.044 0-10.883 0-21.749 0-32.632 0.306-0.024 0.613-0.032 0.919-0.056-0.012 1.327 0 2.653 0.024 3.98-0.024-1.327-0.032-2.653-0.024-3.98 0.294-9.137 0.883-18.26 1.71-27.375 1.044-11.447 2.492-22.85 4.343-34.196 3.447-21.205 8.33-42.063 14.644-62.598 16.83-54.743 42.671-104.862 77.446-150.38 24.321-31.837 52.203-60.176 83.613-85.053 34.071-26.987 71.098-48.974 111.144-65.871 38.821-16.378 79.101-27.43 120.865-33.107 16.878-2.29 33.821-3.685 50.832-4.274 0.056-0.157 0.081-0.329 0.056-0.5 9.975 0 19.947 0 29.91 0-0.056 0.181-0.056 0.351 0.012 0.532 8.592 0.269 17.173 0.827 25.753 1.508 12.56 0.996 25.036 2.572 37.449 4.613 22.624 3.718 44.883 9.044 66.747 15.98 24.914 7.911 49.010 17.781 72.299 29.64 16.81 8.556 33.063 18.068 48.736 28.563 27.725 18.556 53.292 39.716 76.617 63.594 9.689 9.927 18.983 20.197 27.793 30.91 23.801 28.958 43.986 60.251 60.477 93.927 16.592 33.902 28.994 69.263 37.188 106.1 4.012 18.044 6.984 36.248 8.83 54.643 1.17 11.629 2.165 23.257 2.085 34.966 0.157 0.044 0.329 0.069 0.5 0.056 0 9.975 0 19.939 0 29.91-0.194-0.012-0.363 0.012-0.52 0.056zM32.937 435.638c0.024 1.327 0.032 2.653 0.032 3.968 0-1.314-0.024-2.641-0.032-3.968zM752.074 284.882c-0.407-11.129-3.266-21.648-8.455-31.474-10.778-20.402-27.031-34.446-49.042-41.619-6.484-2.121-13.169-3.161-20.015-3.298-28.37-0.544-56.727-0.081-85.097-0.226-0.351 0-0.714 0.069-1.008 0.089-0.125 0.113-0.194 0.169-0.25 0.238s-0.137 0.137-0.149 0.214c-0.056 0.351-0.113 0.714-0.113 1.077 0 59.638 0 119.281 0.012 178.931 0 0.25 0.125 0.509 0.269 1.089 26.285 0 52.602 0 79.077 0 0 26.579 0 52.816 0 79.383-26.41 0-52.727 0-78.807 0-0.77 0.952-0.556 1.71-0.556 2.403-0.012 9.975-0.069 19.939 0.012 29.91 0.044 5.113 0.77 10.121 3.298 14.689 2.867 5.169 7.060 7.955 13.193 7.923 19.846-0.101 39.704-0.044 59.55-0.024 1.064 0 2.165-0.262 3.31 0.351 0 26.192 0 52.433 0 78.625-1.189 0.569-2.29 0.329-3.355 0.329-20.299 0.012-40.611 0.012-60.909 0.012-14.962 0-28.801-4.047-41.506-11.866-18.894-11.629-31.781-28.289-40.022-48.691-5.351-13.249-7.911-27.067-7.854-41.357 0.044-9.701 0.012-19.394 0-29.095 0-0.976 0.262-1.996-0.52-3.117-19.495 0-39.128 0-59.005 0 0-26.668 0-52.909 0-79.383 19.789 0 39.43 0 58.981 0 0.669-2.121 0.814-178.367 0.214-181.403-0.702-0.532-1.552-0.306-2.335-0.306-52.296-0.012-104.604 0.069-156.898-0.032-38.829-0.081-67.779 26.6-77.718 55.901-2.641 7.774-3.98 15.777-3.98 24.007 0 106.144 0.044 212.289-0.032 318.421-0.012 18.475 5.576 34.922 16.798 49.449 11.129 14.407 25.434 24.334 43.002 29.39 6.834 1.96 13.838 2.81 20.922 2.81 105.87 0.024 211.744 0 317.605 0.024 18.326 0 34.761-5.532 49.211-16.729 15.334-11.878 25.636-27.156 30.309-46.095 1.597-6.459 1.996-13.044 1.984-19.677-0.012-102.427-0.012-204.854-0.012-307.28-0.012-4.532 0.056-9.068-0.113-13.588z" />
<glyph unicode="&#xe914;" glyph-name="skype_c" d="M608.662 437.366c-4.912 4.912-9.824 9.809-16.366 13.097-6.542 3.269-13.097 6.542-21.278 9.824-8.185 1.629-16.366 4.912-24.551 6.542-9.824 1.643-17.995 4.912-27.819 6.542-9.809 3.269-17.995 4.912-24.551 6.542-6.542 1.643-11.454 4.912-16.366 6.542s-8.185 4.912-9.811 8.185c-1.629 3.269-3.269 6.542-3.269 11.454 0 8.185 3.269 16.366 11.454 21.278s19.638 8.185 34.361 8.185 27.819-3.269 36.004-9.824c4.912-4.912 8.185-9.824 11.454-14.726 4.912-8.185 13.097-13.097 22.907-13.097h4.912c17.995 0 29.449 19.638 21.268 34.361-4.912 11.454-11.454 19.638-21.268 26.18-9.824 8.185-19.638 13.097-32.731 16.366s-26.18 4.912-42.546 4.912c-14.726 0-27.819-1.643-39.273-4.912-13.097-1.629-22.907-6.542-32.731-13.097-8.185-4.912-16.366-13.097-21.268-22.907-4.912-9.824-8.185-21.268-8.185-34.361s1.643-24.551 6.542-32.731c4.912-9.811 11.454-16.366 19.638-21.268 8.185-4.912 17.995-9.809 29.449-13.097 9.824-3.271 22.907-6.542 34.361-9.824l9.824-3.271c9.811-1.643 17.995-4.912 24.551-6.542 8.185-1.643 13.097-3.271 17.995-6.542 3.271-1.643 8.185-4.912 9.824-8.185 1.629-3.271 3.271-6.542 3.271-11.454 0-9.809-4.912-19.638-14.726-24.551-9.824-4.912-22.907-8.185-39.273-8.185-17.995 0-32.731 3.269-42.546 11.454-6.542 4.912-11.454 11.454-14.726 19.638s-13.097 14.726-22.907 14.726h-4.912c-16.366 0-27.819-16.366-21.278-29.449 4.912-14.726 14.726-26.18 26.18-36.004 19.638-14.726 47.458-22.907 81.819-22.907 16.366 0 31.092 1.629 44.189 4.912 13.097 3.271 22.907 8.185 32.722 14.726 9.824 6.542 16.366 14.726 21.278 24.551 4.912 9.809 8.185 21.268 11.454 32.731 0 9.809 0 19.638-3.271 26.18-1.616 6.555-4.888 13.097-9.8 18.009zM512 928c-265.098 0-480-214.902-480-480s214.902-480 480-480 480 214.902 480 480-214.902 480-480 480zM628.729 208c-22.907 0-45.814 6.542-67.096 16.366-13.097-1.643-24.551-3.269-37.634-3.269-132.549 0-238.904 107.999-238.904 238.904 0 13.097 1.643 24.551 3.269 37.634-11.454 21.268-16.366 44.189-16.366 67.096 0 81.819 65.453 147.272 147.272 147.272 22.907 0 45.814-4.912 67.096-16.366 13.097 1.643 24.551 3.271 37.634 3.271 132.549 0 238.904-107.999 238.904-238.904 0-13.097-1.643-24.551-3.269-37.634 9.824-21.268 16.366-44.189 16.366-67.096 0-81.819-65.453-147.272-147.272-147.272z" />
<glyph unicode="&#xe915;" glyph-name="pintrest_c" d="M512 920c-260.685 0-472-211.315-472-472s211.315-472 472-472 472 211.315 472 472-211.315 472-472 472zM679.605 379.013c-29.884-37.6-70.416-58.492-117.379-58.492-25.609 0-51.218 10.446-66.16 25.065-4.274-18.792-12.805-52.218-14.942-60.576-2.137-10.446-32.007-104.45-64.023-96.087-29.883 6.274-10.667 102.361-8.53 114.896 4.274 18.804 32.007 129.515 36.277 148.319-2.137 6.274-8.53 20.893-8.53 43.869 0 43.869 27.746 79.385 64.023 79.385 27.746 0 46.944-20.893 46.944-50.13 0-16.707-8.53-39.683-14.942-62.665-4.274-12.535-8.53-25.065-10.667-37.6-2.137-10.446 0-20.893 6.398-29.25 6.406-10.446 17.079-14.619 29.884-14.619 27.746 0 46.944 20.893 57.614 39.683 14.942 27.153 23.472 62.665 23.472 100.273 0 60.576-42.675 98.176-110.967 98.176-85.358 0-132.307-64.752-132.307-125.343 0-20.893 6.398-37.6 17.079-50.13 6.398-8.358 8.53-12.535 6.398-22.981-2.137-6.274-4.274-18.804-6.398-22.981-2.137-8.358-8.53-14.619-17.079-14.619-2.137 0-6.406 0-8.53 2.089-40.551 16.707-64.023 58.492-64.023 114.896 0 45.958 19.203 89.818 53.356 123.241 27.746 27.153 76.828 60.576 157.925 60.576 53.356 0 102.437-16.721 136.576-50.13 34.139-31.339 51.218-75.195 53.356-112.794 0-56.417-17.079-106.56-44.82-142.072z" />
<glyph unicode="&#xe916;" d="M968 437.85c0 37.49-3.098 64.854-9.82 93.223h-436.881v-169.225h256.436c-5.16-42.057-33.088-105.387-95.126-147.943v0c0.012 0.012 0.030 0.025 0.043 0.030l146.825-111.465c87.865 79.541 138.524 196.564 138.524 335.376z" />
<glyph unicode="&#xe917;" d="M682.608 213.896c-39.284-26.844-92.011-45.571-161.254-45.571-123.054 0-227.492 79.546-264.719 189.5h-0.030c0 0 0-0.012 0-0.012l-150.927-114.496c76.522-148.962 233.693-251.318 415.675-251.318 125.631 0 231.098 40.532 308.134 110.462l-0.012 0.012-146.825 111.465c-0.012-0.025-0.030-0.030-0.043-0.043z" />
<glyph unicode="&#xe918;" d="M256.605 357.826c-9.82 28.368-15.5 58.763-15.5 90.174 0 31.423 5.681 61.816 14.992 90.186v0.012l-150.431 114.496c0 0.012 0.012 0.025 0.012 0.030l-0.043-0.025c-31.534-61.816-49.629-131.239-49.629-204.707s18.097-142.876 49.629-204.694l0.030 0.030 150.939 114.484c0-0.012 0-0.012 0 0z" />
<glyph unicode="&#xe919;" d="M256.085 538.204l0.030-0.025c37.747 109.954 142.185 189.5 265.227 189.5 87.376 0 146.317-36.982 179.92-67.897l131.325 125.644c-80.642 73.468-185.601 118.567-311.232 118.567-181.982 0-339.147-102.338-415.67-251.283 0-0.012-0.012-0.025-0.012-0.030l150.406-114.478z" />
<glyph unicode="&#xe91a;" glyph-name="twitter_c" d="M512 928c-265.107 0-480-214.906-480-480s214.893-480 480-480 480 214.893 480 480-214.893 480-480 480zM722.121 561.546v-13.851c0-146.776-107.756-315.699-307.107-315.699-61.959 0-118.529 19.393-167.019 49.852 10.769-2.771 18.861-2.771 26.936-2.771 51.189 0 96.986 16.622 134.692 47.081-48.493 0-88.895 33.23-102.364 77.545 8.087-2.771 13.471-2.771 21.557-2.771 10.769 0 21.557 0 29.632 2.771-48.493 8.309-86.199 55.381-86.199 108.004 13.469-8.311 29.632-13.851 48.493-13.851-29.632 19.38-48.493 52.61-48.493 91.382 0 19.38 5.392 38.772 13.469 55.381 53.885-66.461 134.692-110.775 223.6-116.304-2.696 8.309-2.696 16.622-2.696 24.921 0 60.923 48.493 110.775 107.756 110.775 29.632 0 59.263-13.851 78.125-36.001 26.936 5.542 48.493 13.851 70.037 27.691-8.087-24.921-26.936-47.081-48.493-60.923 21.557 2.771 43.101 8.311 61.959 16.622-13.479-22.164-32.341-41.543-53.885-49.852z" />
<glyph unicode="&#xe91b;" glyph-name="next_d" d="M448.667 60.653l412.018 387.347-412.033 387.347c-18.649 17.537-18.649 45.967 0 63.503s48.899 17.537 67.548 0l445.81-419.103c18.649-17.537 18.649-45.967 0-63.503l-445.81-419.088c-18.649-17.537-48.899-17.537-67.548 0-18.64 17.537-18.64 45.967 0.015 63.503zM62.005 60.653l412.018 387.347-412.033 387.347c-18.649 17.537-18.649 45.967 0 63.503s48.899 17.537 67.548 0l445.81-419.103c18.649-17.537 18.649-45.967 0-63.503l-445.81-419.088c-18.649-17.537-48.899-17.537-67.548 0-18.64 17.537-18.64 45.967 0.015 63.503z" />
<glyph unicode="&#xe91c;" glyph-name="arrow_l" d="M120.57 448.001c0 13.409 10.91 24.32 24.32 24.32h842.257c13.409 0 24.32-10.91 24.32-24.32s-10.91-24.32-24.32-24.32h-842.257c-13.409 0-24.32 10.91-24.32 24.32zM21.014 456.491c1.205 3.228 3.095 6.201 5.627 8.743l294.817 294.441c9.485 9.44 24.894 9.419 34.39-0.089 9.44-9.485 9.419-24.894-0.056-34.367l-277.565-277.207 277.55-277.23c4.599-4.588 7.141-10.7 7.141-17.2s-2.532-12.608-7.119-17.211c-4.599-4.599-10.7-7.119-17.2-7.119s-12.602 2.532-17.19 7.119l-294.795 294.474c-2.521 2.521-4.422 5.494-5.616 8.733l-8.469 8.457 8.478 8.457z" />
<glyph unicode="&#xe91d;" glyph-name="up" d="M81.144 202.704c16.765-17.826 43.932-17.826 60.683 0l370.171 393.758 370.171-393.758c16.75-17.826 43.932-17.826 60.683 0 16.765 17.826 16.765 46.731 0 64.553l-400.515 426.038c-16.765 17.826-43.932 17.826-60.683 0l-400.515-426.038c-16.765-17.826-16.765-46.731 0-64.553z" />
<glyph unicode="&#xe91e;" glyph-name="next" d="M266.704 17.144c-17.826 16.765-17.826 43.932 0 60.683l393.758 370.171-393.758 370.171c-17.826 16.75-17.826 43.932 0 60.683 17.826 16.765 46.731 16.765 64.553 0l426.038-400.515c17.826-16.765 17.826-43.932 0-60.683l-426.038-400.515c-17.826-16.765-46.731-16.765-64.553 0z" />
<glyph unicode="&#xe91f;" glyph-name="prev" d="M757.296 17.144c17.826 16.765 17.826 43.932 0 60.683l-393.758 370.171 393.758 370.171c17.826 16.75 17.826 43.932 0 60.683-17.826 16.765-46.731 16.765-64.553 0l-426.038-400.515c-17.826-16.765-17.826-43.932 0-60.683l426.038-400.515c17.826-16.765 46.731-16.765 64.553 0z" />
<glyph unicode="&#xe920;" glyph-name="empty" d="M929.221 535.081c-12.748 12.748-25.504 25.497-38.241 38.252-1.543 1.543-3.023 3.155-4.584 4.872-0.656 0.718-1.327 1.45-2.024 2.199l27.932 27.91c22.864 22.842 45.479 45.428 68.066 68.044 7.516 7.527 10.732 14.24 9.827 20.519-0.904 6.334-5.941 11.935-15.388 17.128-41.757 22.944-76.526 42.015-109.432 60.025-3.26 1.78-6.622 3.617-10.188 4.719-8.555 2.644-17.886-1.090-22.204-8.883-4.463-8.059-2.775-17.23 4.295-23.367 2.928-2.538 6.385-4.566 9.364-6.221 17.055-9.408 34.132-18.783 51.195-28.148 10.681-5.871 21.372-11.731 32.042-17.598 2.075-1.141 4.102-2.396 5.714-3.391 0.401-0.248 0.78-0.483 1.13-0.7l-85.263-85.296-307.715 169.038c6.907 6.899 13.766 13.733 20.592 20.53 20.056 19.983 38.992 38.858 58.104 58.352 5.357 5.459 8.719 5.995 15.009 2.363 22.257-12.839 45.231-25.278 67.45-37.319l8.387-4.544c11.114-6.024 20.836-4.628 27.374 3.967 3.413 4.482 4.646 9.528 3.588 14.597-1.283 6.097-5.809 11.574-12.759 15.421-23.644 13.105-47.762 26.295-71.078 39.054l-19.542 10.692c-15.265 8.358-21.208 7.516-33.482-4.741-14.958-14.936-29.905-29.883-44.852-44.83-14.517-14.517-29.041-29.041-43.569-43.547-1.503-1.503-3.042-2.91-5.171-4.861-1.039-0.955-2.21-2.024-3.566-3.289-0.638 0.937-1.214 1.849-1.78 2.746-1.345 2.13-2.622 4.131-4.255 5.776-27.899 28.064-56.368 56.499-83.884 83.998l-3.803 3.792c-12.624 12.613-18.391 13.394-34.263 4.679l-54.639-29.996c-90.733-49.808-184.55-101.311-276.724-152.159-4.328-2.385-8.132-5.827-11.811-9.171-1.696-1.543-3.453-3.125-5.233-4.584l-0.186-0.153v-13.507l0.142-0.142c3.989-4.142 7.968-8.296 11.946-12.449 8.719-9.098 17.722-18.513 26.74-27.611 15.523-15.676 30.798-30.922 46.971-47.051 6.56-6.538 13.149-13.116 19.79-19.757l-105.578-107.149v-13.507l0.186-0.153c1.736-1.481 3.453-3.103 5.12-4.668 3.639-3.424 7.392-6.968 11.72-9.415 28.549-16.15 57.929-32.279 89.817-49.294 5.386-2.877 7.194-6.046 7.176-12.562-0.091-25.566-0.091-51.554-0.091-76.701 0-32.957 0-67.038-0.215-100.56-0.073-11.72 4.401-19.191 14.947-24.96 108.098-59.172 220.983-121.152 335.524-184.229 4.905-2.702 9.51-4.051 14.083-4.051 4.463 0 8.901 1.283 13.569 3.854 108.014 59.471 221.18 121.615 336.359 184.683 10.075 5.521 14.535 13.014 14.466 24.311-0.186 32.206-0.197 64.952-0.197 96.622 0 26.74 0 54.38-0.113 81.573-0.022 6.086 1.707 9.076 6.848 11.844 26.215 14.072 52.718 28.673 78.335 42.777l14.003 7.709c9.068 4.985 14.116 10.67 14.998 16.902 0.882 6.168-2.323 12.952-9.51 20.158-17.146 17.157-34.307 34.314-51.463 51.463zM530.977 226.626c0 0.7 0.011 1.407 0.022 2.108 0.022 2.075 0.040 4.226-0.135 6.323-0.882 10.239-8.974 18.043-18.823 18.164-0.073 0-0.142 0-0.215 0-0.379 0-0.751-0.029-1.13-0.051-0.175-0.011-0.35-0.011-0.514-0.022-0.576-0.051-1.152-0.135-1.718-0.248-0.011 0-0.011 0-0.022 0-4.080-0.78-7.753-2.928-10.517-5.984-0.011-0.011-0.011-0.011-0.022-0.022-0.35-0.379-0.667-0.791-0.988-1.203-0.051-0.062-0.102-0.113-0.142-0.175-0.266-0.361-0.514-0.74-0.762-1.109-0.084-0.124-0.164-0.237-0.248-0.361-0.204-0.328-0.39-0.678-0.576-1.028-0.102-0.186-0.204-0.361-0.299-0.543-0.153-0.31-0.288-0.638-0.423-0.955-0.102-0.237-0.215-0.463-0.31-0.7-0.124-0.31-0.215-0.627-0.328-0.944-0.091-0.256-0.186-0.514-0.266-0.78-0.102-0.361-0.186-0.74-0.266-1.109-0.051-0.226-0.124-0.452-0.164-0.689-0.113-0.605-0.204-1.222-0.266-1.86-0.204-2.119-0.186-4.288-0.164-6.385 0.011-0.689 0.011-1.367 0.011-2.057-0.011-48.174-0.011-96.335 0-144.508v-37.953c-0.995 0.514-1.922 1.006-2.815 1.458-2.21 1.141-4.113 2.13-6.002 3.165l-60.973 33.482c-74.983 41.184-152.505 83.753-228.826 125.48-6.363 3.475-8.482 6.939-8.42 13.715 0.328 34.799 0.288 70.183 0.248 104.407-0.011 11.523-0.029 23.039-0.029 34.562v9.878c1.222-0.616 2.356-1.181 3.424-1.718 2.447-1.222 4.566-2.272 6.622-3.402 35.127-19.276 70.243-38.551 105.374-57.838 27.181-14.918 54.351-29.843 81.533-44.761 15.020-8.245 21.281-7.329 33.504 4.905 5.656 5.656 11.319 11.319 16.982 16.982 16.982 16.993 33.997 34.037 51.164 51.226l27.119 27.148c0.762-0.711 1.492-1.396 2.21-2.075 1.707-1.594 3.322-3.103 4.883-4.657 13.098-13.087 26.193-26.182 39.28-39.269 16.581-16.581 33.165-33.165 49.768-49.735 3.322-3.311 6.21-5.769 8.974-7.403s5.419-2.458 8.234-2.509c4.39-0.084 9.2 1.707 15.574 5.202 32.487 17.824 64.959 35.652 97.435 53.487 29.821 16.377 59.635 32.742 89.456 49.108 2.086 1.141 4.204 2.199 6.651 3.424 1.039 0.514 2.13 1.057 3.3 1.656 0.051-0.904 0.113-1.736 0.164-2.509 0.135-1.893 0.237-3.383 0.237-4.894 0.011-14.874 0.011-29.752 0.011-44.626 0-32.137 0-65.371 0.073-98.062 0.011-5.211-0.802-8.143-5.488-10.703-77.718-42.478-156.64-85.828-232.969-127.763-21.117-11.596-42.23-23.192-63.347-34.788-0.977-0.536-2.017-0.995-3.329-1.572-0.536-0.237-1.109-0.483-1.747-0.769v40.546c0 47.095 0 94.197 0 141.31zM511.221 746.084c0.256 0.022 0.525 0.029 0.78 0.029 1.842 0 3.792-0.536 6.035-1.78 77.627-42.795 156.64-86.178 233.042-128.12l61.546-33.799c0.667-0.37 1.316-0.802 2.21-1.418 0.339-0.237 0.718-0.492 1.152-0.78-0.718-0.441-1.396-0.882-2.068-1.294-1.729-1.090-3.362-2.13-5.029-3.042-24.293-13.343-48.582-26.689-72.876-40.032-71.067-39.025-144.57-79.393-216.818-119.189-4.697-2.589-8.5-3.496-14.014-0.452-74.808 41.246-150.944 83.053-224.571 123.486-22.525 12.365-45.056 24.745-67.581 37.111-0.299 0.164-0.597 0.339-0.893 0.514-0.904 0.536-1.82 1.13-2.91 1.849-0.576 0.379-1.192 0.78-1.882 1.222l50.683 27.808c32.199 17.66 64.117 35.178 95.976 52.656 10.619 5.827 21.23 11.647 31.838 17.478l21.689 11.906c31.962 17.529 65.003 35.663 97.424 53.651 2.189 1.214 4.182 2.035 6.261 2.199zM86.485 472.135c1.057 1.232 1.973 2.294 2.95 3.269 7.709 7.72 15.421 15.432 23.13 23.141 17.27 17.259 35.127 35.106 52.605 52.736 0.441 0.441 0.864 0.853 1.276 1.222 1.634 1.458 3.063 2.272 4.73 2.272 0.769 0 1.594-0.175 2.509-0.525 0.587-0.226 1.203-0.503 1.882-0.882 59.675-32.906 120.156-66.151 179.697-98.864 19.852-10.907 39.597-21.744 59.172-32.494l62.862-34.522c0.463-0.256 0.893-0.597 1.503-1.068 0.237-0.186 0.492-0.39 0.791-0.605l-13.642-13.62c-12.088-12.070-24.118-24.077-36.144-36.093-2.735-2.735-5.499-5.448-8.267-8.161-6.662-6.549-13.559-13.314-19.976-20.315-0.649-0.711-1.276-1.336-1.893-1.893-2.137-1.933-4.113-2.899-6.29-2.961-2.181-0.073-4.584 0.762-7.596 2.436-64.704 35.845-130.64 72.011-194.4 106.996-17.558 9.634-35.116 19.265-52.674 28.899-12.059 6.622-24.107 13.24-36.341 19.965l-17.27 9.488c0.503 0.565 0.955 1.090 1.389 1.583zM622.976 306.74c-19.244 19.655-38.346 38.664-58.556 58.782-6.855 6.826-13.766 13.704-20.705 20.632l53.651 29.453c47.66 26.164 94.824 52.048 141.988 77.955 1.984 1.090 4 2.199 6.035 3.311 30.481 16.738 65.812 36.166 101.599 55.905 4.215 2.323 6.786 3.453 10.67-0.503 18.732-19.060 37.964-38.263 56.561-56.827 7.476-7.465 14.947-14.925 22.412-22.39 0.361-0.361 0.638-0.831 1.028-1.481 0.153-0.256 0.317-0.543 0.514-0.853-0.7-0.423-1.389-0.853-2.068-1.276-1.769-1.090-3.442-2.13-5.182-3.085-22.153-12.172-44.316-24.333-66.473-36.494-74.469-40.874-151.469-83.145-227.12-124.882-6.29-3.464-9.641-3.052-14.36 1.758zM87.798 691.032c1.849 1.13 3.752 2.302 5.736 3.391 22.503 12.358 44.998 24.712 67.501 37.071 73.875 40.564 150.266 82.51 225.322 123.916 5.674 3.125 9.087 3.617 14.298-1.729 19.214-19.688 38.292-38.715 58.494-58.855 6.866-6.848 13.777-13.733 20.723-20.683l-308.612-169.49-85.263 85.285c0.587 0.339 1.192 0.711 1.798 1.090zM789.534 774.775c0.124 0 0.248 0 0.379 0 10.188 0.186 18.823 8.81 18.852 18.852 0.022 4.872-2.199 9.827-6.075 13.62-3.843 3.752-8.832 5.82-13.62 5.696-5.036-0.142-9.725-2.25-13.189-5.951-3.588-3.814-5.459-8.85-5.262-14.178 0.361-10.353 8.46-18.043 18.914-18.043zM512.176 314.934c-3.905 0.051-7.578-1.068-10.641-3.042-5.109-3.289-8.562-8.923-8.759-15.359-0.091-3.165 0.656-6.341 2.137-9.189 0.882-1.707 2.035-3.311 3.424-4.719 0.452-0.463 0.926-0.904 1.418-1.316 3.435-2.888 7.742-4.504 12.081-4.504 0 0 0 0 0 0v0c0.051 0 0.102 0 0.153 0 10.206 0.091 18.874 8.821 18.914 19.071 0.051 10.353-8.358 18.903-18.732 19.060z" />
<glyph unicode="&#xe921;" glyph-name="heart_fill" d="M956.519 707.698v0c-34.6 84.6-101.2 146.5-187.5 174.2-46.5 14.9-97.6 18.4-147.6 10.1-37.3-6.2-72.6-18.8-104-36.8-3.4-2-7.7-2-11.1 0-75.8 43.7-167.5 53.9-251.7 26.7-86.3-27.8-152.8-89.6-187.3-174.3-31.4-76.9-33.9-169.4-6.9-253.8 19.4-60.4 54.6-121.7 104.7-182.3 39.1-47.3 87.4-94.4 143.5-140 95.1-77.2 181.9-124.7 182.8-125.2 3.6-1.9 7.4-3.4 11.4-4.2 1.1-0.2 2.2-0.6 3.2-1.2l0.7-0.4c3.4-1.9 7.5-1.9 10.8 0l0.6 0.3c1 0.6 2.1 0.9 3.3 1.2 4 0.9 7.8 2.3 11.4 4.3 0.9 0.5 88.5 48.9 183.6 126.2 47.1 38.3 88.5 77.5 123.6 116.9v0 0c6.9 7.7 13.6 15.5 20 23.2 50 60.5 84.9 121.5 103.7 181.3 26.9 84.4 24.3 176.8-7.2 253.8zM816.019 551.098c-7.5-8.8-17.9-14.1-29.4-15l-1.7-0.1h-1.8c-22.3 0-41.2 17.4-43 39.7-2.7 33.1-24.9 61.2-56.5 71.4v0c-22.6 7.3-35 31.6-27.8 54.2 7.3 22.7 31.6 35.1 54.2 27.9h0.1c64.9-21 110.4-78.5 115.9-146.5 1.1-11.7-2.5-22.8-10-31.6z" />
<glyph unicode="&#xe922;" glyph-name="filter" d="M904.48 840.47h-784.94c-18.060 0-32.71-14.64-32.71-32.71v-15.040c-0.070-40.44 14.84-79.48 41.86-109.56l252.49-280.29v-314.63c-0.020-11.3 5.79-21.81 15.37-27.8 5.2-3.23 11.21-4.93 17.33-4.91 5.12 0.030 10.16 1.26 14.72 3.6l159.93 79.8c33.33 16.64 54.36 50.72 54.29 87.98v175.96l252.49 280.29c27.020 30.090 41.94 69.12 41.86 109.56v15.040c0.010 18.070-14.63 32.71-32.69 32.71zM847.57 726.98l-261.64-289.77c-5.45-6-8.48-13.81-8.5-21.91v-188.39c0.090-12.43-6.88-23.84-17.99-29.44l-112.83-56.25v274.070c0.25 7.98-2.43 15.77-7.52 21.91l-261.66 289.78c-12.15 13.53-20.31 30.18-23.55 48.080h717.89c-3.43-17.97-11.81-34.62-24.2-48.080z" />
<glyph unicode="&#xe923;" glyph-name="sort" d="M91.753 693.143h76.040c14.424-40.804 53.316-70.040 99.064-70.040 45.735 0 84.633 29.242 99.064 70.040h566.339c19.337 0 35.017 15.674 35.017 35.017s-15.674 35.017-35.017 35.017h-566.339c-14.424 40.804-53.316 70.040-99.064 70.040-45.735 0-84.633-29.242-99.064-70.040h-76.040c-19.337 0-35.017-15.674-35.017-35.017s15.668-35.017 35.017-35.017zM266.857 763.184c19.337 0 35.017-15.674 35.017-35.017s-15.674-35.017-35.017-35.017c-19.337 0-35.017 15.674-35.017 35.017s15.674 35.017 35.017 35.017zM932.247 483.017h-76.040c-14.424 40.804-53.316 70.040-99.064 70.040-45.735 0-84.633-29.242-99.064-70.040h-566.339c-19.337 0-35.017-15.674-35.017-35.017s15.674-35.017 35.017-35.017h566.339c14.424-40.804 53.316-70.040 99.064-70.040 45.735 0 84.633 29.242 99.064 70.040h76.040c19.337 0 35.017 15.674 35.017 35.017s-15.668 35.017-35.017 35.017zM757.143 412.983c-19.337 0-35.017 15.674-35.017 35.017s15.674 35.017 35.017 35.017 35.017-15.674 35.017-35.017-15.674-35.017-35.017-35.017zM932.247 202.857h-426.253c-14.424 40.804-53.316 70.040-99.064 70.040s-84.633-29.242-99.064-70.040h-216.114c-19.337 0-35.017-15.674-35.017-35.017s15.674-35.017 35.017-35.017h216.126c14.424-40.804 53.316-70.040 99.064-70.040s84.633 29.242 99.064 70.040h426.253c19.337 0 35.017 15.674 35.017 35.017s-15.674 35.017-35.029 35.017zM406.943 132.816c-19.337 0-35.017 15.674-35.017 35.017s15.674 35.017 35.017 35.017 35.017-15.674 35.017-35.017-15.674-35.017-35.017-35.017z" />
<glyph unicode="&#xe924;" glyph-name="clock" d="M512 884.76c-241.22 0-436.76-195.54-436.76-436.76s195.54-436.76 436.76-436.76 436.76 195.54 436.76 436.76c0 241.22-195.54 436.76-436.76 436.76zM512 78.43c-204.11 0-369.57 165.46-369.57 369.57s165.46 369.57 369.57 369.57 369.57-165.46 369.57-369.57-165.46-369.57-369.57-369.57zM545.6 461.77v255c0 18.56-15.040 33.6-33.6 33.6s-33.6-15.040-33.6-33.6v-268.77c-0.050-8.93 3.45-17.51 9.74-23.85l184.78-184.78c6.34-6.29 14.92-9.79 23.85-9.74 8.93-0.050 17.51 3.45 23.85 9.74 0.070 0.060 0.13 0.13 0.19 0.19 13.070 13.17 12.98 34.45-0.19 47.51l-175.020 174.7z" />
<glyph unicode="&#xe925;" glyph-name="marketing" d="M494.57 64.525h-278.9c-28.83 0-52.29 23.46-52.29 52.29v592.7c14.58-10.97 32.69-17.48 52.29-17.48h575.22v-209.15c0-9.64 7.81-17.43 17.43-17.43s17.43 7.79 17.43 17.43v244.010h-610.080c-28.83 0-52.29 23.46-52.29 52.29s23.46 52.29 52.29 52.29h592.65c9.62 0 17.43 7.79 17.43 17.43s-7.81 17.43-17.43 17.43h-592.65c-48.060 0-87.15-39.1-87.15-87.15v-662.37c0-48.060 39.1-87.15 87.15-87.15h278.89c9.62 0 17.43 7.79 17.43 17.43 0.010 9.64-7.8 17.43-17.42 17.43zM686.31 448.005c-115.34 0-209.17-93.83-209.17-209.17s93.83-209.17 209.17-209.17c115.34 0 209.17 93.83 209.17 209.17s-93.83 209.17-209.17 209.17zM686.31 64.525c-96.11 0-174.31 78.2-174.31 174.31s78.19 174.31 174.31 174.31c96.11 0 174.31-78.2 174.31-174.31s-78.2-174.31-174.31-174.31zM743.71 233.725l-39.97-39.97v132.23c0 9.64-7.81 17.43-17.43 17.43s-17.43-7.79-17.43-17.43v-132.23l-39.97 39.97c-6.82 6.82-17.83 6.82-24.65 0s-6.82-17.83 0-24.65l69.66-69.66c0.050-0.050 0.090-0.090 0.14-0.14l12.25-12.25 12.25 12.25c0.050 0.050 0.090 0.090 0.14 0.14l69.66 69.66c6.82 6.82 6.82 17.83 0 24.65s-17.84 6.82-24.65 0zM215.67 796.625h575.22v-34.86h-575.22v34.86z" />
<glyph unicode="&#xe926;" glyph-name="calender" d="M873.26 810.66h-135.090v35.95c0 10.9-8.84 19.74-19.74 19.74s-19.74-8.84-19.74-19.74v-35.95h-394.23l-0.89 36.43c-0.26 10.9-9.34 19.53-20.21 19.25-10.9-0.27-19.51-9.31-19.25-20.21l0.87-35.47h-114.24c-10.9 0-19.74-8.84-19.74-19.74v-741.53c0-10.9 8.84-19.74 19.74-19.74h722.52c10.9 0 19.74 8.84 19.74 19.74v741.53c-0.010 10.9-8.84 19.74-19.74 19.74zM853.52 69.13h-683.040v544.52h683.040v-544.52zM853.52 653.12h-683.040v118.070h683.040v-118.070zM233.59 424.87h111.37c10.9 0 19.74 8.84 19.74 19.74v104.57c0 10.9-8.84 19.74-19.74 19.74h-111.37c-10.9 0-19.74-8.84-19.74-19.74v-104.58c0-10.9 8.84-19.73 19.74-19.73zM253.32 529.44h71.89v-65.1h-71.89v65.1zM233.59 202.14h111.37c10.9 0 19.74 8.84 19.74 19.74v104.57c0 10.9-8.84 19.74-19.74 19.74h-111.37c-10.9 0-19.74-8.84-19.74-19.74v-104.57c0-10.91 8.84-19.74 19.74-19.74zM253.32 306.71h71.89v-65.1h-71.89v65.1zM456.32 424.87h111.36c10.9 0 19.74 8.84 19.74 19.74v104.57c0 10.9-8.84 19.74-19.74 19.74h-111.36c-10.9 0-19.74-8.84-19.74-19.74v-104.58c0-10.9 8.84-19.73 19.74-19.73zM476.050 529.44h71.89v-65.1h-71.89v65.1zM456.32 202.14h111.36c10.9 0 19.74 8.84 19.74 19.74v104.57c0 10.9-8.84 19.74-19.74 19.74h-111.36c-10.9 0-19.74-8.84-19.74-19.74v-104.57c0-10.91 8.84-19.74 19.74-19.74zM476.050 306.71h71.89v-65.1h-71.89v65.1zM679.050 424.87h111.37c10.9 0 19.74 8.84 19.74 19.74v104.57c0 10.9-8.84 19.74-19.74 19.74h-111.37c-10.9 0-19.74-8.84-19.74-19.74v-104.58c0-10.9 8.84-19.73 19.74-19.73zM698.78 529.44h71.89v-65.1h-71.89v65.1zM679.050 202.14h111.37c10.9 0 19.74 8.84 19.74 19.74v104.57c0 10.9-8.84 19.74-19.74 19.74h-111.37c-10.9 0-19.74-8.84-19.74-19.74v-104.57c0-10.91 8.84-19.74 19.74-19.74zM698.78 306.71h71.89v-65.1h-71.89v65.1zM222.72 153.33h578.56v-39.47h-578.56v39.47z" />
<glyph unicode="&#xe927;" glyph-name="buildingmaterials" d="M956.83 309.896h-47.709c6.973 10.579 11.045 23.238 11.045 36.838v197.14c0 37.033-30.124 67.157-67.157 67.157h-146.626c9.377 11.543 15.008 26.248 15.008 42.252v197.129c0 37.033-30.124 67.157-67.157 67.157h-295.71c-37.033 0-67.157-30.124-67.157-67.157v-197.14c0-15.344 5.187-29.496 13.882-40.812h-145.37c-37.033 0-67.157-30.124-67.157-67.157v-197.14c0-13.59 4.071-26.248 11.045-36.838h-36.61c-37.033 0-67.157-30.124-67.157-67.157v-197.14c0-37.033 30.124-67.157 67.157-67.157h394.291c19.805 0 37.628 8.619 49.929 22.295 12.323-14.51 30.687-23.736 51.175-23.736h394.291c37.033 0 67.157 30.124 67.157 67.157v197.151c-0.022 37.033-30.146 67.157-67.168 67.157zM128.454 545.303c0 17.325 14.098 31.424 31.424 31.424h295.71c17.325 0 31.424-14.098 31.424-31.424v-197.14c0-17.325-14.098-31.424-31.424-31.424h-295.71c-17.325 0-31.424 14.098-31.424 31.424v197.14zM492.859 47.028c0-17.325-14.098-31.424-31.424-31.424h-394.28c-17.325 0-31.424 14.098-31.424 31.424v197.151c0 17.325 14.098 31.424 31.424 31.424h394.291c17.325 0 31.424-14.098 31.424-31.424v-197.151zM358.523 621.848c-17.325 0-31.424 14.098-31.424 31.424v197.14c0 17.325 14.098 31.424 31.424 31.424h295.71c17.325 0 31.424-14.098 31.424-31.424v-197.14c0-17.325-14.098-31.424-31.424-31.424h-295.71zM525.875 543.874c0 17.325 14.098 31.424 31.424 31.424h295.71c17.325 0 31.424-14.098 31.424-31.424v-197.14c0-17.325-14.098-31.424-31.424-31.424h-295.721c-17.325 0-31.424 14.098-31.424 31.424v197.14zM988.243 45.598c0-17.325-14.098-31.424-31.424-31.424h-394.28c-17.325 0-31.424 14.098-31.424 31.424v197.14c0 17.325 14.098 31.424 31.424 31.424h394.291c17.325 0 31.424-14.098 31.424-31.424v-197.14z" />
<glyph unicode="&#xe928;" glyph-name="buschbeckbarbecues" d="M979.531 599.543h-935.062c-24.939 0-44.469-24.986-44.469-56.875s19.53-56.875 44.469-56.875h37.042c5.457-19.39 12.709-38.441 21.721-57.061 22.538-46.533 54.997-88.122 96.493-123.625 7.882-6.739 16.020-13.187 24.392-19.366l-66.156-270.475c-3.778-15.472-0.315-31.527 9.514-44.049s24.601-19.716 40.528-19.716h81.989c23.82 0 44.411 16.16 50.054 39.304l21.15 86.688c0.828-0.047 1.656-0.082 2.495-0.082h296.277l21.127-86.606c5.643-23.144 26.222-39.304 50.042-39.304h81.989c15.927 0 30.688 7.182 40.528 19.704s13.303 28.577 9.526 44.049l-66.144 270.429c8.406 6.179 16.556 12.65 24.461 19.413 41.496 35.491 73.956 77.080 96.493 123.625 9.024 18.632 16.265 37.683 21.733 57.061h39.805c24.939 0 44.469 24.986 44.469 56.875s-19.541 56.886-44.469 56.886zM48.655 532.443c-0.956 2.029-2.017 5.573-2.017 10.237s1.061 8.208 2.017 10.237h21.197c0.466-6.856 1.154-13.676 2.052-20.462h-23.249zM327.28 135.265c-2.367-4.909-3.754-10.377-3.941-16.137l-28.601-117.259c-0.536-2.192-2.483-3.719-4.745-3.719h-81.989c-1.959 0-3.171 1.014-3.836 1.866s-1.364 2.274-0.898 4.174l62.25 254.548c24.205-13.933 50.007-25.779 77.255-35.433 1.831-0.653 3.673-1.259 5.515-1.889l-21.010-86.151zM640.265 158.199h-259.387l12.254 50.24c38.15-9.094 77.477-13.7 117.48-13.7 39.968 0 79.284 4.594 117.399 13.676l12.254-50.217zM370.56 115.911l0.933 3.824h278.159l0.933-3.824h-280.024zM817.873 4.19c0.466-1.9-0.233-3.323-0.898-4.174s-1.877-1.866-3.836-1.866h-81.989c-2.25 0-4.209 1.527-4.734 3.719l-26.432 108.386c0.466 2.448 0.723 4.979 0.723 7.555 0 9.397-3.241 18.049-8.64 24.928l-19.191 78.654c1.866 0.63 3.731 1.259 5.585 1.912 27.225 9.642 53.004 21.477 77.185 35.386l62.226-254.502zM791.185 340.553c-73.688-63.031-175.952-99.175-280.572-99.175s-206.885 36.144-280.572 99.175c-67.228 57.504-106.917 132.043-113.388 211.922h787.932c-6.483-79.879-46.171-154.406-113.399-211.922zM975.345 532.443h-26.024c0.898 6.797 1.574 13.618 2.052 20.462h23.972c0.956-2.029 2.017-5.573 2.017-10.237s-1.061-8.208-2.017-10.225zM306.549 862.626c13.478-23.167 15.612-48.865 6.366-76.369-4.302-11.205-21.955-62.413-3.276-103.99 8.5-18.912 23.435-32.786 43.198-40.097l16.195 43.734c-8.103 2.996-13.455 7.917-16.848 15.484-8.208 18.259-3.475 48.282 4.384 68.464l0.35 0.956c13.77 40.435 10.295 80.298-10.050 115.288-20.882 35.899-51.744 53.773-60.711 58.402l-21.383-41.449c12.627-6.541 30.221-20.567 41.776-40.423zM498.93 862.626c13.478-23.167 15.612-48.865 6.366-76.369-4.302-11.205-21.955-62.413-3.265-103.99 8.5-18.912 23.435-32.775 43.198-40.097l16.195 43.734c-8.103 2.996-13.455 7.917-16.848 15.472-8.208 18.259-3.475 48.282 4.384 68.464l0.35 0.944c13.77 40.435 10.295 80.298-10.050 115.288-20.87 35.899-51.744 53.773-60.711 58.402l-21.383-41.449c12.615-6.518 30.221-20.544 41.764-40.4zM691.31 862.626c13.478-23.167 15.612-48.865 6.366-76.369-4.302-11.205-21.955-62.413-3.276-103.99 8.5-18.923 23.435-32.786 43.198-40.097l16.195 43.734c-8.103 2.996-13.455 7.917-16.848 15.484-8.197 18.259-3.475 48.282 4.396 68.464l0.35 0.956c13.77 40.435 10.295 80.298-10.050 115.277-20.882 35.899-51.744 53.773-60.711 58.402l-21.383-41.449c12.615-6.529 30.221-20.556 41.764-40.412z" />
<glyph unicode="&#xe929;" glyph-name="decorativestone" d="M959.349 162.057c-5.891 29.356-25.433 54.115-58.071 73.613-26.878 16.053-62.94 28.65-107.186 37.431-99.774 19.824-205.928 14.227-236.088 12.053l-1.033-0.12c-120.5-18.096-231.023 6.934-272.628 22.694l-1.326 0.424c-75.548 20.042-137.825-8.347-160.203-26.15l-1.446-1.315c-84.449-87.851-65.886-212.253-44.268-265.759l0.391-0.978 1.25-2.087 0.663-0.793c35.671-43.018 137.64-56.723 141.824-57.267 84.188-11.814 171.126-17.803 258.39-17.803 173.55 0 317.059 23.889 387.216 44.355l0.859 0.25 0.826 0.359c102.143 45.17 104.165 137.738 90.829 181.093zM857.619 8.212c-92.383-26.726-342.046-66.092-632.455-25.335-37.105 4.826-99.328 20.803-121.75 45.289-18.661 48.322-33.671 155.704 38.399 231.48 18.911 14.586 69.885 36.845 132.912 20.379 44.485-16.683 160.377-42.822 285.986-24.074 139.259 10.010 352.36-8.445 370.011-100.328l0.152-0.772 0.239-0.75c10.825-34.312 9.314-108.784-73.494-145.889zM268.214 347.171l0.196-6.021 4.38-4.163c15.412-14.597 41.757-21.998 78.287-21.998 24.607 0 45.072 3.402 53.137 4.956 101.393 13.564 202.265 48.181 281.149 82.514-13.314-28.976-5.554-56.365 2.489-69.516 12.716-27.487 42.648-43.866 80.297-43.866 5.152 0 10.282 0.348 14.89 1 53.669 2.163 74.95 46.007 78.808 69.353 10.412 48.887-32.78 80.526-57.125 90.438l-1.087 0.391c-4.869 1.511-9.543 2.695-14.064 3.63 7.271 4.119 13.847 7.988 19.596 11.532l1 0.674c17.216 12.836 26.965 29.128 28.987 48.42 2.88 27.552-11.347 55.093-25.9 72.059-46.387 74.2-143.65 67.483-190.668 53.050 5.347 10.13 9.717 20.748 12.716 31.128 10.303 22.302 5.489 38.551-0.424 48.311-7.13 11.76-19.64 20.237-34.247 26.041 3.434 3.065 6.597 6.467 9.434 10.227l0.304 0.413 0.859 1.391c11.814 21.618 11.705 52.68-0.293 83.069-15.89 40.257-50.659 78.613-103.36 114.001l-0.706 0.478-1.728 0.869-0.761 0.272c-7.782 2.815-34.964 10.64-57.647-6.978-19.705-15.303-27.715-43.594-23.802-84.058 2.228-27.628 12.673-72.331 37.518-102.795-45.529 0.674-78.482-3.434-93.209-6.891l-0.228-0.054c-58.995-14.933-82.525-40.725-91.872-59.723-7.999-16.249-9.097-34.932-3.043-50.311 6.043-28.019 38.214-48.757 95.676-61.625 40.062-8.977 82.243-12.108 109.675-13.173-55.615-31.475-101.513-64.494-137.173-98.774-66.57-63.994-72.57-108.23-72.059-124.272zM794.201 422.458c4.869-2.141 46.67-21.661 38.899-57.201l-0.163-0.848c-2.38-15.086-16.259-43.909-51.778-45.072l-0.793-0.022-0.783-0.12c-13.977-2.109-52.941-1.435-65.375 26.639l-0.217 0.489-0.891 1.554c-0.174 0.272-17.618 27.976 9.543 58.169l0.554 0.62 1.087 1.554 0.38 0.696c3.391 6.315 16.227 18.27 40.551 18.27 8.945 0 18.683-1.587 28.987-4.728zM452.133 867.256l-0.022 0.228c-2.815 29.030 1.652 49.691 12.586 58.191 4.228 3.282 9.662 4.945 16.14 4.945 3.924 0 8.108-0.652 11.955-1.859 57.941-39.268 81.286-75.363 90.677-98.807 10.336-25.813 8.119-46.605 2.478-57.832-20.987-26.335-65.168-15.759-80.775-9.314-33.986 15.173-50.343 70.744-53.039 104.447zM300.625 651.807l-0.141 0.783-0.533 1.772-0.315 0.728c-1.272 2.956-4.923 13.64 1.793 27.28 5.413 10.999 22.042 31.367 72.613 44.203 12.303 2.869 39.594 6.206 76.232 6.206 19.987 0 40.583-0.978 61.527-2.858 10.716-2.652 22.052-4.141 32.454-4.141 2.043 0 4.054 0.065 6.043 0.174 28.356-1.685 52.452-10.543 59.473-22.118 1.228-2.022 4.956-8.173-1.489-21.574l-0.261-0.533-0.663-1.891c-7.912-28.443-36.551-82.221-88.253-82.221-4.478 0-9.13 0.402-13.803 1.185l-0.543 0.087-1.891 0.109c-92.796 0.011-196.504 20.194-202.243 52.811zM361.5 451.336c43.007 41.029 104.132 81.569 179.452 119.316 15.010 3.304 29.15 10.075 42.029 20.096 15.227 6.945 30.91 13.781 47.072 20.487 39.040 12.368 121.739 19.542 158.823-41.040l0.315-0.511 1.185-1.522c11.075-12.586 21.422-33.117 19.596-50.604-1.13-10.803-6.63-19.824-16.803-27.563-64.147-39.366-228.067-119.033-393.291-141.042l-0.804-0.13c-28.432-5.543-78.591-8.314-101.198 5.717 2.652 20.911 20.346 55.517 63.625 96.796z" />
<glyph unicode="&#xe92a;" glyph-name="barkmulch" d="M901.329-5.914c-0.408 0-0.805 0.21-1.027 0.583-0.327 0.572-0.14 1.295 0.432 1.634l40.21 23.547c0.56 0.327 1.295 0.14 1.634-0.432 0.327-0.572 0.14-1.295-0.432-1.634l-40.21-23.547c-0.198-0.093-0.408-0.152-0.607-0.152zM901.329-26.381c-7.666 0-14.831 4.107-18.693 10.723-6.009 10.28-2.544 23.547 7.701 29.592l40.257 23.571c10.315 6.033 23.594 2.555 29.627-7.748 6.009-10.28 2.555-23.559-7.701-29.592l-40.257-23.571c-3.291-1.937-7.083-2.975-10.933-2.975zM891.609 11.916c-0.012-0.012-0.023-0.012-0.047-0.023l0.047 0.023zM542.427 28.695h-46.593c-11.937 0-21.657-9.708-21.657-21.657s9.708-21.657 21.657-21.657h46.593c11.937 0 21.657 9.708 21.657 21.657s-9.72 21.657-21.657 21.657zM133.851 92.207l-42.24 20.070c-10.7 4.971-23.547 0.373-28.658-10.257l-0.047-0.093c-5.099-10.77-0.502-23.699 10.28-28.833l42.159-20.035c2.87-1.342 6.056-2.054 9.218-2.054 8.308 0 15.974 4.842 19.557 12.369 2.485 5.228 2.777 11.097 0.84 16.546-1.937 5.438-5.881 9.802-11.108 12.287zM292.649-26.381h-35.367c-9.066 0-16.441-8.436-16.441-18.81s7.375-18.81 16.441-18.81h35.367c9.066 0 16.441 8.436 16.441 18.81s-7.375 18.81-16.441 18.81zM326.278 356.197h-45.554c-11.669 0-21.167-9.498-21.167-21.167s9.498-21.167 21.167-21.167h45.554c11.669 0 21.167 9.498 21.167 21.167 0.012 11.669-9.487 21.167-21.167 21.167zM415.414 461.926h-34.586c-8.856 0-16.068-8.25-16.068-18.39s7.211-18.39 16.068-18.39h34.586c8.856 0 16.068 8.25 16.068 18.39 0.012 10.14-7.2 18.39-16.068 18.39zM841.54 353.082l-46.464 77.934h10.98c44.189 0 80.128 35.951 80.128 80.128v368.727c0 44.189-35.951 80.128-80.128 80.128h-101.225c-44.189 0-80.128-35.951-80.128-80.128v-261.376c-30.758 29.522-59.206 57.503-75.181 74.761-16.184 24.492-43.022 68.133-53.127 91.925l-2.007 4.679-3.979 3.302c-4.994 4.119-23.314 17.235-49.638 13.349-22.252-3.302-41.949-17.316-58.565-41.68-78.285-83.512-241.131-272.17-305.134-397.385-6.779-12.007-25.986-51.727-7.526-88.086 12.544-24.714 38.25-39.405 76.394-43.687l2.952-0.327 3.034 0.513c1.447 0.257 35.636 5.636 44.667-39.498l0.233-1.179 0.373-1.144c8.168-24.831 26.954-42.532 50.233-47.351 36.756-7.62 79.941 16.091 128.343 70.49 6.009 6.149 16.616 12.544 27.199 10.677 17.713-3.127 31.424-26.418 39.802-45.414l0.525-1.19 1.482-2.45 0.782-0.98c14.434-18.156 45.998-37.55 91.307-37.55 14.842 0 30.21 2.089 45.963 6.208 18.693-36.254 45.321-68.67 78.11-94.842 43.407-34.656 82.042-46.686 92.835-49.556l4.469-1.19 4.446 1.284c53.535 15.519 99.311 47.304 132.357 91.937 35.181 47.514 44.072 92.31 45.963 104.912l0.175 1.144 0.012 152.928h-99.661zM657.036 879.872c0 26.394 21.4 47.795 47.795 47.795h101.225c26.394 0 47.795-21.4 47.795-47.795v-368.727c0-26.394-21.4-47.795-47.795-47.795h-101.225c-26.394 0-47.795 21.4-47.795 47.795v368.727zM569.673 353.082v-35.694c-8.378-2.824-14.434-10.735-14.434-20.047s6.056-17.223 14.434-20.047v-90.455c-18.565-4.539-36.068-5.461-51.75-2.602-18.541 3.372-31.318 11.319-37.701 18.191-18.075 39.557-41.575 62.124-69.883 67.118-27.118 4.784-51.54-8.915-65.379-23.337l-0.525-0.56c-51.342-57.806-78.938-59.475-88.413-57.503-11.354 2.345-16.546 13.407-18.25 18.051-7.456 35.321-26.266 52.917-40.84 61.482-14.586 8.565-32.625 12.369-48.891 10.408-21.587 2.812-35.297 9.697-40.77 20.467-6.779 13.349-1.47 33.909 6.791 48.366l0.478 0.887c62.019 121.61 223.138 307.841 299.661 389.311l0.595 0.63 1.155 1.459 0.443 0.665c9.918 14.901 20.198 23.244 30.548 24.772 5.286 0.793 9.953-0.502 13.15-2.054 16.931-36.558 53.43-91.68 55.064-94.13l0.443-0.677 1.085-1.377 0.513-0.56c21.132-23.022 65.181-65.706 107.491-105.846v-48.856c0-7.573 1.085-14.901 3.057-21.855-0.607 0.082-1.225 0.128-1.855 0.128h-34.586c-8.856 0-16.068-8.25-16.068-18.39s7.211-18.39 16.068-18.39h34.586c6.488 0 12.077 4.434 14.609 10.77 14.621-19.65 38.005-32.404 64.329-32.404h16.254l-46.464-77.934h-104.947zM907.887 202.755c-7.188-44.889-47.363-135.251-149.93-167.211-40.222 12.275-118.529 56.628-154.959 146.826v137.374h90.56l50.198 84.212h28.623l50.222-84.212h85.274v-116.989zM513.897 334.891h-34.586c-8.856 0-16.068-8.25-16.068-18.39s7.211-18.39 16.068-18.39h34.586c8.856 0 16.068 8.25 16.068 18.39s-7.211 18.39-16.068 18.39z" />
<glyph unicode="&#xe92b;" glyph-name="raisedbeds" d="M844.128 428.65h-349.283v282.397c0 12.445-10.125 22.57-22.57 22.57s-22.57-10.125-22.57-22.57v-282.397h-269.822c-50.593 0-91.755-41.162-91.755-91.755v-309.14c0-50.593 41.162-91.755 91.755-91.755h664.234c50.593 0 91.755 41.162 91.755 91.755v309.14c0.011 50.593-41.14 91.755-91.744 91.755zM890.753 27.755c0-25.703-20.911-46.625-46.625-46.625h-664.223c-25.703 0-46.625 20.911-46.625 46.625v309.14c0 25.703 20.911 46.625 46.625 46.625h664.234c25.703 0 46.625-20.911 46.625-46.625v-309.14zM760.319 775.57c11.383 31.991 15.849 66.16 12.933 98.79-2.602 29.096-10.96 55.515-23.513 74.345l-7.502 11.296-13.475-1.323c-153.101-14.873-205.884-159.768-212.41-234.297l-0.087-0.943v-139.095l29.226 9.009c139.28 42.994 193.699 122.824 214.828 182.219zM718.453 911.77c10.754-25.399 17.215-70.854-0.65-121.078-16.163-45.422-56.523-105.511-156.397-144.115v74.843c5.496 59.287 45.292 170.793 157.047 190.35zM410.689 563.029l27.774-6.591v114.726l-0.098 1.019c-1.355 14.32-8.542 64.707-44.099 112.146-33.974 45.314-82.573 72.025-140.591 77.239l-12.77 1.127-7.534-10.418c-20.781-28.847-33.020-86.974-10.83-146.434 18.375-49.216 65.932-113.945 188.149-142.814zM263.854 814.758c91.928-15.903 124.818-100.46 129.469-145.773v-54.376c-82.312 26.353-115.376 71.862-128.504 107.018-12.976 34.777-10.418 70.886-0.965 93.131zM225.196 217.974h311.645v-71.288h-311.645v71.288zM578.935 217.974h195.195v-71.288h-195.195v71.288z" />
<glyph unicode="&#xe92c;" glyph-name="soilenricher" d="M984.41 287.721l5.207 0.753 4.363 2.89c6.95 4.588 29.655 22.053 30.015 53.879 0.349 30.78-20.344 60.93-61.515 89.641-5.668 4.341-11.729 7.422-17.6 10.391-12.978 6.579-26.372 13.383-42.824 36.021-7.152 16.093-41.374 88.887-84.682 110.974-58.917 51.023-176.909 154.845-220.273 198.726-20.006 28.34-53.238 78.89-65.721 106.386l-2.407 5.286-4.622 3.576c-15.969 12.314-38.112 17.791-59.221 14.642-26.225-3.902-49.628-19.77-69.567-47.154-96.625-96.467-297.791-314.547-376.838-459.271-15.958-26.394-27.046-66.227-10.616-99.481 14.575-29.487 45.996-46.974 93.408-51.956l3.239-0.36 3.138 0.54c2.969 0.45 47.165 6.309 58.501-46.715l0.304-1.406 0.472-1.35c9.716-27.642 31.668-47.593 58.692-53.373 44.253-9.469 96.985 17.577 156.711 80.397 8.086 7.748 22.604 15.733 37.348 13.068 22.975-4.15 40.227-31.376 50.651-53.497l0.641-1.361 1.754-2.699 0.945-1.113c17.431-20.524 55.532-42.453 110.198-42.442 34.008 0 70.332 8.412 108.039 25.011l4.577 2.036 3.306 3.677c8.513 9.312 41.835 29.892 95.241 16.239 12.652-7.197 44.669-21.84 81.375-11.37 27.305 7.793 48.83 27.136 64 57.489 13.169 20.94 33.479 40.418 43.758 41.925zM900.167 269.548l-0.574-0.933-0.484-0.99c-9.267-18.871-20.827-30.049-35.346-34.199-17.296-4.937-36.066 1.215-46.895 7.985l-1.417 0.888-3.25 1.417-1.541 0.427c-70.298 19.354-120.196-5.229-141.484-25.225-88.921-37.696-142.114-11.032-157.735 4.701-21.795 44.669-49.763 70.365-83.197 76.393-32.444 5.848-61.942-9.57-78.732-25.956l-0.607-0.63c-65.091-68.577-100.864-69.837-113.235-67.194-10.582 2.26-19.399 10.369-23.796 21.795-9.154 40.609-32.017 60.705-49.707 70.422-17.487 9.604-39.091 13.832-58.445 11.527-20.4 2.452-45.242 8.94-53.564 25.776-8.097 16.396-0.259 39.743 8.907 54.756l0.585 1.001c76.663 140.675 275.817 356.090 370.417 450.341l0.664 0.664 1.338 1.574 0.562 0.787c12.517 17.611 25.798 27.575 39.439 29.599 8.086 1.203 15.137-0.787 19.714-3.014 20.794-42.217 66.148-106.307 68.173-109.153l0.495-0.708 1.237-1.496 0.641-0.652c43.893-44.759 167.519-153.495 226.751-204.731l1.26-1.091 3.081-1.957 1.541-0.675c20.141-8.873 48.886-53.047 65.046-90.631l0.495-1.147 1.26-2.215 0.641-0.9c23.774-33.659 46.333-45.096 61.256-52.664 4.408-2.238 8.221-4.172 10.447-5.927l1.068-0.798c39.113-27.148 41.958-45.861 41.902-50.944-0.067-6.151-3.486-10.549-6.208-13.079-37.044-10.256-67.217-57.511-70.703-63.146zM650.261 359.864h-52.664c-12.933 0-23.459-10.526-23.459-23.459s10.526-23.459 23.459-23.459h52.664c12.933 0 23.459 10.526 23.459 23.459-0.011 12.944-10.526 23.459-23.459 23.459zM985.119 95.709l-45.49-26.642c-11.111-6.534-14.856-20.906-8.333-32.096 4.195-7.141 11.943-11.572 20.22-11.572 4.138 0 8.232 1.102 11.853 3.216l45.456 26.619c11.133 6.534 14.901 20.906 8.356 32.129-6.534 11.133-20.917 14.867-32.062 8.344zM545.843 48.735h-52.664c-12.933 0-23.459-10.526-23.459-23.459s10.526-23.459 23.459-23.459h52.664c12.933 0 23.459 10.526 23.459 23.459 0 12.944-10.526 23.459-23.459 23.459zM702.926 502.934h-52.676c-12.933 0-23.459-10.526-23.459-23.459s10.526-23.459 23.459-23.459h52.676c12.933 0 23.459 10.526 23.459 23.459s-10.526 23.459-23.459 23.459zM308.409 403.453h-52.664c-12.933 0-23.459-10.526-23.459-23.459s10.526-23.459 23.459-23.459h52.664c12.933 0 23.459 10.526 23.459 23.459s-10.526 23.459-23.459 23.459zM83.57 120.619l-47.694 22.66c-11.595 5.432-25.551 0.461-31.095-11.088l-0.056-0.112c-5.533-11.673-0.54-25.674 11.133-31.23l47.705-22.66c3.093-1.439 6.523-2.204 9.93-2.204 8.997 0 17.307 5.252 21.198 13.405 5.522 11.673 0.54 25.674-11.122 31.23zM282.915 37.017l-52.496 5.735c-12.742 1.316-24.28-7.962-25.731-20.681l-0.011-0.124c-1.394-12.832 7.917-24.426 20.771-25.843l52.496-5.735c3.396-0.349 6.894 0.056 10.11 1.181 8.502 2.958 14.631 10.639 15.621 19.624 1.383 12.843-7.928 24.437-20.76 25.843zM768.759 36.781l-49.943-16.88c-12.202-4.15-18.792-17.465-14.653-29.745 2.665-7.838 9.357-13.754 17.465-15.429 4.060-0.843 8.277-0.585 12.258 0.753l49.909 16.858c12.224 4.138 18.837 17.454 14.687 29.768-4.161 12.224-17.487 18.803-29.723 14.676zM503.986 479.475h-52.664c-12.933 0-23.459-10.526-23.459-23.459s10.526-23.459 23.459-23.459h52.664c12.933 0 23.459 10.526 23.459 23.459-0.011 12.944-10.526 23.459-23.459 23.459zM392.247 602.336h-52.676c-12.933 0-23.459-10.526-23.459-23.459s10.526-23.459 23.459-23.459h52.664c12.933 0 23.459 10.526 23.459 23.459 0 12.944-10.515 23.459-23.448 23.459z" />
<glyph unicode="&#xe92d;" glyph-name="topsoil" d="M651.348 138.645h-53.071c-10.823 0-19.628-8.805-19.628-19.628s8.805-19.628 19.628-19.628h53.071c10.823 0 19.628 8.805 19.628 19.628s-8.805 19.628-19.628 19.628zM306.831 182.567h-53.082c-10.823 0-19.628-8.805-19.628-19.628s8.805-19.628 19.628-19.628h53.082c10.823 0 19.628 8.805 19.628 19.628s-8.805 19.628-19.628 19.628zM962.675 185.514c-5.388 3.634-11.075 6.157-17.094 8.828-12.898 5.721-27.47 12.199-44.518 32.743-7.108 14.010-41.663 78.477-84.496 97.13-59.307 44.931-178.897 137.004-222.704 175.824-20.167 24.982-53.781 69.729-66.393 94.023l-2.293 4.414-4.15 2.809c-3.611 2.431-7.555 4.54-11.74 6.306v162.8c0 10.823-8.805 19.628-19.628 19.628s-19.628-8.805-19.628-19.628v-156.644c-0.963-0.080-1.938-0.161-2.901-0.264-17.644-2.018-43.75-10.708-68.514-40.494-97.267-84.943-300.034-277.288-379.657-404.856-15.122-21.875-26.392-55.364-12.978-84.232 12.944-27.882 44.266-44.289 93.083-48.76l2.281-0.206 2.247 0.321c2.121 0.31 52.096 6.799 64.111-42.397l0.138-0.573 0.711-2.087c9.137-22.735 29.109-39.576 53.437-45.068 19.123-4.311 40.62-1.903 63.893 7.154 28.123 10.937 59.032 31.815 91.867 62.059 9.309 7.83 26.277 15.707 43.864 12.428 19.662-3.68 37.398-19.972 52.727-48.416l0.596-1.101 1.708-2.339 0.894-0.917c16.934-17.449 53.976-36.080 107.15-36.080 33.397 0 69.167 7.269 106.302 21.577l3.715 1.433 2.866 2.763c9.103 8.771 45.022 28.341 102.209 15.328 19.719-10.1 43.933-14.652 65.326-12.221 22.139 2.522 53.002 13.551 74.773 51.683 12.451 17.3 33.856 36.733 47.315 38.453l3.944 0.504 3.405 1.972c6.833 3.944 29.144 19.032 29.453 47.35 0.321 27.252-20.316 53.758-61.325 78.752zM977.384 94.987c-36.080-7.876-66.622-49.78-70.107-54.721l-0.55-0.78-0.47-0.837c-31.070-55.386-87.694-25.234-90.090-23.927l-1.066 0.585-2.58 0.997-1.181 0.287c-68.789 16.567-117.422-4.758-137.704-21.737-93.553-34.968-149.902-9.722-166.205 4.838-20.992 37.731-47.418 59.812-78.568 65.636-31.31 5.859-60.225-7.211-76.849-21.393l-0.527-0.47c-66.209-61.050-104.135-63.836-120.839-60.064-11.339 2.557-20.671 10.112-25.188 20.327-7.292 28.135-24.156 49.264-48.829 61.142-16.819 8.094-37.593 11.614-56.051 9.539-22.907 2.316-50.95 8.736-58.975 26.014-6.489 13.976 1.261 33.328 9.871 45.664l0.573 0.86c77.342 124.187 278.216 314.33 373.626 397.519l0.619 0.539 1.238 1.296 0.47 0.585c15.202 18.711 29.969 25.693 42.053 27.458v-26.747c0-10.823 8.805-19.628 19.628-19.628s19.628 8.805 19.628 19.628v0.757c22.632-34.154 53.426-72.228 55.077-74.28l0.516-0.631 0.573-0.585 1.101-1.066c44.162-39.405 168.67-135.239 228.333-180.41l1.009-0.768 2.557-1.433 1.215-0.47c24.592-9.481 54.263-54.733 67.195-81.033l0.447-0.917 1.25-1.96 0.642-0.791c23.56-29.189 45.756-39.038 60.442-45.561 4.666-2.075 8.702-3.864 11.304-5.652l0.871-0.562c40.047-24.328 42.993-40.677 42.947-45.103-0.080-5.652-4.357-9.86-7.406-12.141zM714.508 839.809c16.154 55.776-6.856 97.015-14.285 108.331l-6.523 9.94-11.809-1.181c-109.833-10.823-147.678-115.886-152.344-169.931l-0.069-0.791v-107.735l27.733 12.577c108.652 49.241 145.511 108.090 157.297 148.79zM673.109 915.959c5.836-13.23 12.072-36.32 3.703-65.235-8.484-29.293-34.417-70.967-108.067-110.326v44.059c3.749 40.677 30.324 116.677 104.364 131.501zM416.973 680.242l27.733-12.577-0.011 103.86-0.069 0.791c-4.448 51.477-40.528 151.565-145.305 161.894l-11.82 1.169-6.512-9.917c-7.108-10.823-29.098-50.25-13.666-103.527 11.247-38.797 46.329-94.848 149.65-141.693zM308.161 893.213c68.938-14.32 93.759-85.31 97.29-123.419v-40.104c-68.33 36.894-92.487 75.771-100.42 103.149-7.681 26.564-2.224 47.877 3.13 60.374zM475.077 295.392h-53.082c-10.823 0-19.628-8.805-19.628-19.628s8.805-19.628 19.628-19.628h53.082c10.823 0 19.628 8.805 19.628 19.628s-8.805 19.628-19.628 19.628zM707.411 234.789h-53.082c-10.823 0-19.628-8.805-19.628-19.628s8.805-19.628 19.628-19.628h53.071c10.823 0 19.628 8.805 19.628 19.628s-8.793 19.628-19.616 19.628z" />
<glyph unicode="&#xe92e;" glyph-name="lawnturf" d="M1015.088 529.244c-12.669 17.68-35.564 23.366-56.984 14.182-86.099-36.976-162.596-103.042-215.382-186.063-31.303-49.238-54.211-104.149-68.076-163.231-15.365-65.506-19.677-136.571-12.796-211.223 1.221-13.203 12.3-23.112 25.299-23.112 0.776 0 1.565 0.038 2.366 0.102 13.992 1.285 24.282 13.674 22.997 27.665-25.007 271.425 111.361 436.183 252.066 502.948-74.843-85.336-122.694-175.76-146.2-276.106-20.377-87.041-17.884-165.267-16.078-222.378l0.242-7.581c0.432-14.043 12.16-25.083 26.215-24.638 14.043 0.432 25.070 12.173 24.638 26.215l-0.242 7.619c-3.638 114.248-9.133 286.905 156.198 470.679 17.133 19.041 19.487 45.74 5.737 64.921zM861.447 853.927c13.712 18.901 14.043 43.908 0.814 62.212-12.516 17.324-34.089 24.218-54.974 17.566-110.623-35.246-251.926-131.216-322.342-385.177-14.093 29.828-29.7 58.574-46.821 86.138-85.883 138.288-209.989 245.273-340.48 293.506-21.751 8.052-43.934 1.514-56.513-16.637-13.19-19.029-11.193-45.282 4.846-63.84 160.827-186.038 228.178-366.136 255.309-524.763-6.233 11.753-12.898 23.252-20.008 34.445-52.787 83.009-129.283 149.087-215.382 186.063-21.407 9.196-44.315 3.498-56.984-14.17-13.75-19.181-11.397-45.88 5.724-64.908 165.318-183.774 159.835-356.418 156.198-470.666l-0.242-7.632c-0.432-14.043 10.595-25.783 24.638-26.215 14.068-0.471 25.783 10.595 26.215 24.638l0.242 7.594c1.819 57.124 4.299 135.35-16.078 222.378-23.506 100.358-71.357 190.77-146.187 276.106 140.705-66.766 277.073-231.523 252.053-502.948-1.285-13.992 9.006-26.381 22.997-27.665 0.789-0.076 1.577-0.102 2.366-0.102 4.197 0 8.191 1.043 11.728 2.9 10.494 2.887 18.316 12.402 18.634 23.849l0.356 12.745c2.786 99.709 6.602 236.268-27.576 387.963-18.66 82.792-47.203 163.371-84.853 239.486-43.005 86.939-99.442 171.347-167.811 250.921 117.428-45.676 229.183-143.618 307.6-269.86 103.627-166.844 148.222-380.725 128.977-618.507-1.132-14.004 9.298-26.279 23.302-27.411 0.7-0.051 1.386-0.089 2.086-0.089 13.114 0 24.256 10.087 25.325 23.391 3.078 38.006 4.605 75.415 4.605 112.162 0.712 2.048 1.183 4.21 1.348 6.462 6.869 94.583 47.508 428.348 280.888 750.066zM551.113 356.041c-8.916 38.757-19.944 76.331-33.020 112.594 0.076 0.293 0.165 0.585 0.229 0.89 57.149 279.998 195.565 380.331 302.423 415.055-0.114-0.242-0.28-0.496-0.483-0.776-90.271-124.449-162.049-263.297-213.334-412.702-19.919-58.040-34.928-112.353-46.211-161.832-2.875 15.772-6.067 31.367-9.603 46.77z" />
<glyph unicode="&#xe92f;" glyph-name="sleepers" d="M801.8 862.551l-218.467-169.406c-0.629-0.486-0.747-1.388-0.261-2.017 0.285-0.368 0.712-0.558 1.139-0.558 0.308 0 0.617 0.095 0.878 0.297l218.467 169.406c0.629 0.486 0.747 1.388 0.261 2.017s-1.388 0.747-2.017 0.261zM1023.956 538.072l-12.956 315.248c-0.308 7.178-3.666 13.906-9.219 18.462-1.519 1.246-3.156 2.29-4.888 3.132-9.361 16.136-26.399 26.114-45.751 26.114h-335.798c-12.28 0-24.252-4.295-33.72-12.090l-479.349-394.671h-19.909c-45.418 0-82.366-36.947-82.366-82.366v-334.564c0-45.418 36.947-82.366 82.366-82.366h334.564c45.418 0 82.366 36.947 82.366 82.366v7.629l505.072 409.739c12.945 10.5 20.265 26.708 19.589 43.366zM233.428 424.538h-129.089c-0.937 0-1.91 0-2.551 1.792s0.107 2.42 0.831 3.014l14.214 11.711h112.348c-0.522-5.66 0.854-11.509 4.248-16.516zM615.345 850.686h132.423l-178.993-138.795c-10.951-8.507-12.956-24.335-4.461-35.31 4.805-6.193 12.055-9.741 19.897-9.741 5.565 0 11.046 1.875 15.424 5.28l218.467 169.406c3.239 2.515 5.683 5.683 7.321 9.16h125.72c0.985 0 1.922 0 2.563-1.815 0.629-1.815-0.095-2.397-0.866-3.014l-475.458-378.155c-15.353 16.528-37.208 26.565-60.451 26.565h-49.986l121.175 93.969c10.951 8.495 12.968 24.323 4.437 35.357-8.483 10.892-24.275 12.897-35.286 4.426l-172.479-133.752h-103.319l432.152 355.802c0.475 0.38 1.115 0.617 1.72 0.617zM416.93 441.054c6.929 0 13.431-2.456 18.545-6.68l-11.616-9.231c-0.463-0.368-1.115-0.593-1.709-0.593h-145.13l21.285 16.516h118.624zM53.214 312.558c5.387-11.651 18.936-17.536 31.252-13.182l0.154 0.047c18.189 6.585 46.735 5.327 78.308-3.453 34.005-9.444 69.018-26.72 98.573-48.622 37.113-27.503 98.668-87.266 93.934-178.435-0.439-8.282 3.227-15.84 9.195-20.74h-282.264c-16.077 0-29.152 13.075-29.152 29.152v235.232zM291.459 287.808c-73.55 54.507-167.733 79.293-223.96 58.968-6.324-2.29-11.378-6.893-14.238-12.992-0.012-0.036-0.024-0.071-0.047-0.107v78.225c0 0.356 0.012 0.712 0.024 1.068 0.344-1.21 0.736-2.42 1.163-3.631 7.653-21.345 27.253-35.132 49.939-35.132h317.823c8.329 0 16.54 1.993 23.931 5.707v-97.861l-23.16-17.24c-11.129-8.282-13.443-24.074-5.137-35.25 4.722-6.324 12.268-10.109 20.17-10.109 2.765 0 5.517 0.463 8.127 1.364v-114.187l-23.991-19.458c-10.761-8.733-12.422-24.596-3.678-35.405 0.949-1.163 1.993-2.242 3.109-3.203-1.495-0.237-3.026-0.356-4.58-0.356h-20.396c5.28 4.343 8.78 10.785 9.16 18.118 5.921 114.638-69.041 187.974-114.258 221.48zM963.221 789.807l4.034-98.086c-3.678-0.7-7.19-2.207-10.275-4.509l-158.277-117.794c-11.129-8.282-13.443-24.074-5.126-35.274 4.734-6.324 12.268-10.085 20.158-10.085 5.375 0 10.714 1.768 15.021 4.983l140.883 104.849 4.022-97.849c0.036-0.819-0.368-1.72-0.997-2.231l-473.37-384.016v109.109l111.921 83.303c5.41 4.010 8.922 9.895 9.895 16.563 0.973 6.644-0.7 13.265-4.722 18.687-4.022 5.398-9.919 8.91-16.587 9.872s-13.3-0.736-18.628-4.722l-81.891-60.95v90.244c0 2.871-0.154 5.731-0.451 8.566l464.389 369.34z" />
<glyph unicode="&#xe930;" glyph-name="fertilisters" d="M994.373 789.208c13.86 15.537 17.182 36.993 8.667 56.004-8.515 19-26.736 30.804-47.564 30.804h-770.402c-20.363 0-38.411-11.437-47.121-29.841s-6.092-39.623 6.827-55.355l69.561-84.742c0.974-1.179 1.277-3.69-0.054-6.016-55.723-97.38-60.96-221.008-55.55-307.579 5.951-95.205 27.991-198.254 58.947-275.671 0.617-1.536 0.509-3.149-0.281-4.317l-64.606-95.075c-11.047-16.252-12.151-36.323-2.954-53.689s26.411-27.732 46.061-27.732h739.652c18.751 0 35.576 9.673 45.022 25.87 9.446 16.208 9.576 35.619 0.335 51.936l-55.171 97.423c-0.584 1.039-0.606 2.543-0.054 3.819 98.256 227.013 62.702 462.358 2.402 594.924-0.887 1.948-0.703 4.122 0.454 5.421l65.829 73.814zM881.175 134.342c-6.579-15.202-5.691-32.774 2.359-47.002l55.171-97.423c0.682-1.201 0.671-2.402-0.022-3.603-0.703-1.201-1.71-1.785-3.105-1.785h-739.652c-1.493 0-2.478 0.595-3.181 1.915-0.703 1.331-0.638 2.467 0.206 3.7l64.606 95.086c9.868 14.531 11.815 33.077 5.194 49.599-50.259 125.663-96.417 383.686-6.33 541.138 11.155 19.508 9.327 43.983-4.566 60.895l-69.561 84.742c-0.941 1.147-1.104 2.467-0.465 3.819s1.764 2.056 3.246 2.056h770.391c1.547 0 2.651-0.714 3.289-2.132 0.628-1.407 0.433-2.705-0.595-3.863l-65.807-73.803c-13.958-15.656-17.258-38.346-8.396-57.8 56.177-123.499 89.167-343.111-2.781-555.539zM773.732 725.025l-13.557-1.201c-144.987-12.724-206.163-124.722-223.335-200.937-27.71 41.527-77.070 80.63-158.393 86.722l-12.194 0.92-7.985-9.251c-12.865-14.877-20.623-38.422-21.856-66.294-1.233-27.98 4.469-57.346 16.057-82.686 8.602-18.816 25.384-45.822 56.437-67.636 29.593-20.785 66.218-32.914 109.141-36.171v-170.014h-95.172c-23.339 0-42.328-13.492-42.328-30.079s18.989-30.079 42.328-30.079h288.828c23.339 0 42.328 13.492 42.328 30.079s-18.989 30.079-42.328 30.079h-145.139v187.456c143.83 30.458 201.965 108.632 225.39 169.246 27.493 71.152 15.721 143.851-10.127 178.886l-8.093 10.961zM389.711 559.588c91.061-13.276 123.661-81.009 128.325-117.537v-44.86c-78.445 7.26-109.606 49.393-121.443 75.285-15.646 34.223-13.46 68.923-6.881 87.111zM580.651 419.242l-0.011 72.169c5.875 56.772 48.527 163.673 168.596 182.251 11.026-25.47 16.187-72.504-2.554-120.989-17.723-45.898-60.992-104.596-166.032-133.432zM16.304 960.001h21.64v-21.64h-21.64v21.64zM24.235 944.702h5.605c0.444 0 0.811-0.368 0.811-0.811v0c0-0.444-0.368-0.811-0.811-0.811h-5.605c-0.444 0-0.811 0.368-0.811 0.811v0c0 0.444 0.357 0.811 0.811 0.811z" />
<glyph unicode="&#xe931;" glyph-name="weedbarriergroundcover" d="M167.385 299.941c-43.109 0-78.185-36.533-78.185-81.437s35.075-81.437 78.185-81.437 78.185 36.533 78.185 81.437-35.075 81.437-78.185 81.437zM1019.542 511.61c-8.118 18.453-25.391 29.92-45.073 29.92h-266.113l8.046 8.672c31.727 34.196 49 79.353 48.626 127.148-0.373 47.807-18.345 92.663-50.614 126.305-32.293 33.666-75.005 52.155-120.439 52.155-0.458 0-0.915 0-1.373 0-45.988-0.373-89.013-19.646-121.126-54.263l-422.844-455.751c-31.727-34.196-49-79.353-48.626-127.148s18.345-92.663 50.614-126.305c32.293-33.666 75.005-52.155 120.439-52.155 0.458 0 0.915 0 1.373 0 27.222 0.229 53.408 7.070 76.908 19.802v-4.192h373.302c13.563 0 26.68 5.818 35.979 15.972l351.838 383.661c13.864 15.129 17.429 37.183 9.082 56.178zM506.805 768.786c22.994 24.789 53.613 38.581 86.195 38.846 0.325 0 0.638 0 0.964 0 32.173 0 62.574-13.238 85.677-37.328v0c49.12-51.216 49.758-135.255 1.445-187.338l-38.448-41.447h-9.275v-9.997l-302.598-326.122c0.313 4.324 0.47 8.685 0.47 13.093 0 94.988-73.499 172.269-163.85 172.269-3.939 0-7.853-0.157-11.72-0.446l351.139 378.47zM167.385 94.415c-63.779 0-115.669 55.661-115.669 124.089s51.89 124.089 115.669 124.089 115.669-55.661 115.669-124.089-51.89-124.089-115.669-124.089zM974.939 488.002l-351.85-383.673c-0.229-0.253-0.422-0.337-0.458-0.349h-320.244l361.269 389.371h310.812c0.108 0 0.169-0.012 0.181 0 0.241-0.169 0.927-0.988 1.132-2.349 0.277-1.771-0.506-2.638-0.843-2.999z" />
<glyph unicode="&#xe932;" glyph-name="delivery" d="M64.727 656.731h268.368v-59.636h-268.368v59.636zM94.535 537.456h178.91v-59.636h-178.91v59.636zM987.226 457.324l-59.636 178.91-6.526 20.497h-259.977v119.274h-626.179v-59.636h566.541v-447.279h-183.573c-13.28 51.247-59.407 89.455-114.615 89.455s-101.333-38.208-114.615-89.455h-34.479v149.094h-59.636v-208.73h94.117c13.28-51.247 59.407-89.455 114.615-89.455s101.333 38.208 114.615 89.455h247.869c13.28-51.247 59.407-89.455 114.615-89.455s101.333 38.208 114.615 89.455h94.117v243.209l-1.866 4.66zM303.264 179.633c-33.316 0-59.636 26.32-59.636 59.636s26.32 59.636 59.636 59.636 59.636-26.32 59.636-59.636c0-33.307-26.32-59.636-59.636-59.636zM780.362 179.633c-33.316 0-59.636 26.32-59.636 59.636s26.32 59.636 59.636 59.636c33.316 0 59.636-26.32 59.636-59.636 0-33.307-26.332-59.636-59.636-59.636zM929.453 269.091h-34.479c-13.28 51.247-59.407 89.455-114.615 89.455s-101.333-38.208-114.615-89.455h-4.66v328.004h217.109l51.247-152.822v-175.182z" />
<glyph unicode="&#xe933;" glyph-name="close-round" d="M512 960c-282.725 0-512-229.275-512-512s229.275-512 512-512 512 229.275 512 512-229.275 512-512 512zM512 14.769c-239.238 0-433.231 193.993-433.231 433.231s193.993 433.231 433.231 433.231 433.231-193.993 433.231-433.231-193.993-433.231-433.231-433.231zM747.136 683.136c-12.542 12.542-32.938 12.542-45.48 0l-189.656-189.656-189.656 189.656c-12.542 12.542-32.938 12.542-45.48 0s-12.542-32.938 0-45.48l189.656-189.656-189.656-189.656c-12.542-12.542-12.542-32.938 0-45.48v0c12.542-12.542 32.938-12.542 45.48 0l189.656 189.656 189.656-189.656c12.542-12.542 32.938-12.542 45.48 0s12.542 32.938 0 45.48l-189.656 189.656 189.656 189.656c12.542 12.542 12.542 32.938 0 45.48z" />
</font>
</defs>
</svg>
